Loading...
Error

Скачать Безумцы / Mad Men (сезон 07) (Скотт Хорнбеккер, Кристофер Мэнли, Мэтью Уэйнер) [2014, драма, WEB-DL] [MVO (Gears Media & IdeaFilm)] торрент без регистрации

 
Статистика раздачи
Размер:  8,99 GB   |    Скачан:  416 раз
Сидов:  1  [  0 KB/s  ]  
 
Автор Сообщение

МихаНЕзатор

[] 

Информация о фильме
Название: Безумцы
Оригинальное название: Mad Men
Год выпуска: 2014 - 2015
Жанр: драма
Режиссёр: Скотт Хорнбеккер, Кристофер Мэнли, Мэтью Уэйнер

В ролях: Джон Хэмм, Элизабет Мосс, Винсент Картайзер, Дженьюри Джонс, Кристина Хендрикс, Аарон Стэтон, Рич Соммер и другие.

Описание: США, 60-е годы ХХ века. В центре повествования — работа рекламного Агентства «Стерлинг-Купер», расположенного на престижной Медисон-авеню в центре Нью-Йорка, и жизнь его креативного директора — мастера манипуляций и интриг — Дона Дрейпера. Находясь на вершине карьеры, он противостоит конкурентам, стараясь сберечь своe положение в компании. Служебные и семейные перипетии Дона и его коллег происходят на фоне глобальных событий в жизни американского общества тех лет



Страна: США
Продолжительность: ~47 мин.
Перевод: Профессиональный (многоголосый закадровый, 3 голоса) IdeaFilm (1-7 серии)
Перевод: Профессиональный (многоголосый закадровый, 5 голосов) Gears Media & IdeaFilm (8-14 серии)

Доп. информация: Студийная озвучка

Файл
Качество: WEB-DL
Контейнер: AVI
Видео: xvid, 720x400 [16:9], 23.976 fps, 1500 kbps, 0.179 bit/pixel
Аудио: русский, AC3, 48 kHz, 6 ch, 384 kbps
Субтитры: отсутствуют

АНОНСЫ ПОПУЛЯРНЫХ РАЗДАЧ


Торент обновлён, добавлена 13-я серия!

Format : AVI
Format/Info : Audio Video Interleave
File size : 642 MiB
Duration : 47mn 45s
Overall bit rate : 1 879 Kbps
Writing application : VirtualDubMod 1.5.10.3 | www.virtualdub-fr.org || (build 2550/release)
Writing library : VirtualDubMod build 2550/release

Video
ID : 0
Format : MPEG-4 Visual
Format profile : Advanced Simple@L5
Format settings, BVOP : Yes
Format settings, QPel : No
Format settings, GMC : No warppoints
Format settings, Matrix : Default (H.263)
Codec ID : DX50
Codec ID/Hint : DivX 5
Duration : 47mn 45s
Bit rate : 1 485 Kbps
Width : 720 pixels
Height : 400 pixels
Display aspect ratio : 16:9
Frame rate : 23.976 fps
Color space : YUV
Chroma subsampling : 4:2:0
Bit depth : 8 bits
Scan type : Progressive
Compression mode : Lossy
Bits/(Pixel*Frame) : 0.215
Stream size : 507 MiB (79%)
Writing library : XviD 73

Audio
ID : 1
Format : AC-3
Format/Info : Audio Coding 3
Mode extension : CM (complete main)
Format settings, Endianness : Big
Codec ID : 2000
Duration : 47mn 45s
Bit rate mode : Constant
Bit rate : 384 Kbps
Channel count : 2 channels
Channel positions : Front: L R
Sampling rate : 48.0 KHz
Bit depth : 16 bits
Compression mode : Lossy
Stream size : 131 MiB (20%)
Alignment : Split accross interleaves
Interleave, duration : 42 ms (1.00 video frame)
Interleave, preload duration : 500 ms



Скачать Безумцы.Mad.Men.(сезон.07).(Скотт.Хорнбеккер.Кристофер.Мэнли.Мэтью.Уэйнер).[2014.драма.WEB-DL].[MVO.(Gears.Media.&.IdeaFilm)].torrent без регистрации
Золото ЗОЛОТАЯ РАЗДАЧА! СКАЧАННОЕ НЕ ЗАСЧИТЫВАЕТСЯ! Золото
Дата: Зарегистрирован   [ Тип: внутренний ] Как тут cкачать?
MAGNET ссылка
MAGNET ссылка


Скачать .torrent

92 KB

Статус: проверено DHT
Скачан: торрент - 416 раз, раздача полностью - 10 раз
Размер: 8,99 GB
Оценка:  - (Голосов: 0)
Поблагодарили: 0
Поделиться ссылкой на эту раздачу с друзьями:
В контактеFacebookОдноклассникиTwitterLivejournalМой МирLiveinternet
 

 
Показать сообщения:    


Вы не можете начинать темы
Вы не можете отвечать на сообщения
Вы не можете редактировать свои сообщения
Вы не можете удалять свои сообщения
Вы не можете голосовать в опросах
Вы не можете прикреплять файлы к сообщениям
Вы можете скачивать файлы