Loading...
Error

Скачать Салем / Salem (сезон 02) (Ричард Шепард) [2015, драма, триллер, фантастика, WEB-DL] [1080p] 3x[MVO (LostFilm, NewStudio, AlexFilm)]+[Eng] торрент без регистрации

 
Статистика раздачи
Размер:  26,31 GB   |    Скачан:  2235 раз
Сидов:  1  [  0 KB/s  ]  
 
Автор Сообщение

МихаНЕзатор

[] 

Информация о фильме
Название: Салем
Оригинальное название: Salem
Год выхода: 2015
Жанр: драма, триллер, фантастика
Режиссер: Ричард Шепард

В ролях: Шэйн Уэст, Джанет Монтгомери, Эжур Дэун, Моргана Шоу, Сет Гейбл, Ксандер Беркли, Эшли Мадекве, Элиз Эберли, Джон Артур, Кристофер Берри...

О фильме: Не смотря на то, что Мэри Сибли все ещё удерживает свою власть, её положению угрожает бессчётное множество других ведьм: как новых, так и шокирующе знакомых.
После удачно проведённого великого обряда Салем становится лакомым кусочком для многих, ранее неизвестных людей, преследующих свои интересы, среди которых - загадочный доктор Сэмьюэл Уэйнрайт и эффектная графиня Марбург.
Это война. Бой начался, и линия фронта проходит через Салем.



Страна: США
Студия: Tribune Studios, Twentieth Century Fox Television
Продолжительность: ~ 00:43:00
Перевод:
Профессиональный (многоголосый закадровый) LostFilm
Профессиональный (многоголосый закадровый) NewStudio
Профессиональный (многоголосый закадровый) AlexFilm

Файл
Кодек: MPEG-4 AVC
Качество: WEB-DL 1080p
Видео: 1920x1080 (1.778), 23.976 fps, ~5000 kbps, 0.102 bit/pixel
Звук:
Аудио rus: AC-3, 48 KHz, 6 ch, 384 kbps | LostFilm
Аудио rus: AC-3, 48 KHz, 6 ch, 384 kbps | NewStudio
Аудио rus: AC-3, 48 KHz, 6 ch, 384 kbps | AlexFilm
Аудио eng: AC-3, 48 KHz, 6 ch, 384 kbps | original
Субтитры: отсутствуют

Релиз от: skyns61

АНОНСЫ ПОПУЛЯРНЫХ РАЗДАЧ


Торрент обновлён, добавлена 13-я серия!

01. К убийству призывая /Cry Havoc
02. Кровавый поцелуй /Blood Kiss
03. Изнутри /From Within
04. Книга теней /Book of Shadows
05. Виноцветное море /The Wine Dark Sea
06. К добру ли эта встреча при луне /Ill Met by Moonlight
07. Манящая /The Beckoning Fair One
08. Мертвые птицы /Dead Birds
09. Плата за грехи /Wages of Sin
10. Пока смерть не разлучит нас /Til Death Do Us Part
11. Ад на земле /On Earth as in Hell
12. Полночи не бывать /Midnight Never Come
13. Ведьмин час /The Witching Hour

Монтаж, работа со звуком LostFilm: Skyns61
Выделенный Voiceover от «LostFilm» был наложен на центр оригинального AC3.

Общее
Уникальный идентификатор : 205231050914680550460380328162900968217 (0x9A661009AA0B118384F3029E833A0319)
Полное имя : G:FilmsSalem.S02.1080p.L.N.ASalem.s02e01.1080p.WEB-DL.3xRus.Eng.mkv
Формат : Matroska
Версия формата : Version 4 / Version 2
Размер файла : 2,37 Гбайт
Продолжительность : 50 м.
Общий поток : 6748 Кбит/сек
Дата кодирования : UTC 2015-04-08 06:26:19
Программа кодирования : mkvmerge v7.8.0 ('River Man') 64bit built on Mar 27 2015 16:31:37
Библиотека кодирования : libebml v1.3.1 + libmatroska v1.4.2
DURATION : 00:50:14.400000000
NUMBER_OF_FRAMES : 94200
NUMBER_OF_BYTES : 144691200
_STATISTICS_WRITING_APP : mkvmerge v7.8.0 ('River Man') 64bit built on Mar 27 2015 16:31:37
_STATISTICS_WRITING_DATE_UTC : 2015-04-08 06:26:19
_STATISTICS_TAGS : BPS DURATION NUMBER_OF_FRAMES NUMBER_OF_BYTES

Видео
Идентификатор : 1
Формат : AVC
Формат/Информация : Advanced Video Codec
Профиль формата : High@L4.0
Параметр CABAC формата : Да
Параметр ReFrames формата : 4 кадра
Идентификатор кодека : V_MPEG4/ISO/AVC
Продолжительность : 50 м.
Битрейт : 5077 Кбит/сек
Ширина : 1920 пикселей
Высота : 1080 пикселей
Соотношение сторон : 16:9
Режим частоты кадров : Постоянный
Частота кадров : 23,976 кадра/сек
Цветовое пространство : YUV
Субдискретизация насыщенности : 4:2:0
Битовая глубина : 8 бит
Тип развёртки : Прогрессивная
Бит/(Пиксели*Кадры) : 0.102
Размер потока : 1,78 Гбайт (75%)
Язык : English
Default : Нет
Forced : Нет
Основные цвета : BT.709
Характеристики трансфера : BT.709
Коэффициенты матрицы : BT.709

Аудио #1
Идентификатор : 2
Формат : AC-3
Формат/Информация : Audio Coding 3
Расширение режима : CM (complete main)
Параметр Endianness формата : Big
Идентификатор кодека : A_AC3
Продолжительность : 50 м.
Вид битрейта : Постоянный
Битрейт : 384 Кбит/сек
Каналы : 6 каналов
Расположение каналов : Front: L C R, Side: L R, LFE
Частота : 48,0 КГц
Битовая глубина : 16 бит
Метод сжатия : С потерями
Размер потока : 138 Мбайт (6%)
Заголовок : LostFilm 5.1
Язык : Russian
Default : Да
Forced : Нет

Аудио #2
Идентификатор : 3
Формат : AC-3
Формат/Информация : Audio Coding 3
Расширение режима : CM (complete main)
Параметр Endianness формата : Big
Идентификатор кодека : A_AC3
Продолжительность : 50 м.
Вид битрейта : Постоянный
Битрейт : 384 Кбит/сек
Каналы : 6 каналов
Расположение каналов : Front: L C R, Side: L R, LFE
Частота : 48,0 КГц
Битовая глубина : 16 бит
Метод сжатия : С потерями
Размер потока : 138 Мбайт (6%)
Заголовок : NewStudio 5.1
Язык : Russian
Default : Нет
Forced : Нет

Аудио #3
Идентификатор : 4
Формат : AC-3
Формат/Информация : Audio Coding 3
Расширение режима : CM (complete main)
Параметр Endianness формата : Big
Идентификатор кодека : A_AC3
Продолжительность : 50 м.
Вид битрейта : Постоянный
Битрейт : 384 Кбит/сек
Каналы : 6 каналов
Расположение каналов : Front: L C R, Side: L R, LFE
Частота : 48,0 КГц
Битовая глубина : 16 бит
Метод сжатия : С потерями
Размер потока : 138 Мбайт (6%)
Заголовок : AlexFilm 5.1
Язык : Russian
Default : Нет
Forced : Нет

Аудио #4
Идентификатор : 5
Формат : AC-3
Формат/Информация : Audio Coding 3
Расширение режима : CM (complete main)
Параметр Endianness формата : Big
Идентификатор кодека : A_AC3
Продолжительность : 50 м.
Вид битрейта : Постоянный
Битрейт : 384 Кбит/сек
Каналы : 6 каналов
Расположение каналов : Front: L C R, Side: L R, LFE
Частота : 48,0 КГц
Битовая глубина : 16 бит
Метод сжатия : С потерями
Размер потока : 138 Мбайт (6%)
Заголовок : original
Язык : English
Default : Нет
Forced : Нет



Скачать Салем.Salem.(сезон.02).(Ричард.Шепард).[2015.драма.триллер.фантастика.WEB-DL].[1080p].3x[MVO.(LostFilm.NewStudio.AlexFilm)]+[Eng].torrent без регистрации
Золото ЗОЛОТАЯ РАЗДАЧА! СКАЧАННОЕ НЕ ЗАСЧИТЫВАЕТСЯ! Золото
Дата: Зарегистрирован   [ Тип: внутренний ] Как тут cкачать?
MAGNET ссылка
MAGNET ссылка


Скачать .torrent

68 KB

Статус: проверено DHT
Скачан: торрент - 2235 раз, раздача полностью - 34 раз
Размер: 26,31 GB
Оценка:  5 (Голосов: 1)
Поблагодарили: 1
Поделиться ссылкой на эту раздачу с друзьями:
В контактеFacebookОдноклассникиTwitterLivejournalМой МирLiveinternet
 

 
Показать сообщения:    


Вы не можете начинать темы
Вы не можете отвечать на сообщения
Вы не можете редактировать свои сообщения
Вы не можете удалять свои сообщения
Вы не можете голосовать в опросах
Вы не можете прикреплять файлы к сообщениям
Вы можете скачивать файлы