Loading...
Error

Скачать Сумасшедшие гонки / Herbie: Fully Loaded (Анджела Робинсон) [2005, комедия, приключения, семейный, спорт, фэнтези, WEB-DLRip] [Dub]+[MVO]x2 торрент без регистрации

 
Статистика раздачи
Размер:  2,19 GB   |    Скачан:  104 раза
Сидов:  1  [  0 KB/s  ]  
 
Автор Сообщение

Marsianka

[] 

Информация о фильме
Название: Сумасшедшие гонки (Хёрби-победитель)
Оригинальное название: Herbie: Fully Loaded
Год выхода: 2005
Жанр: комедия, приключения, семейный, спорт, фэнтези
Режиссёр: Анджела Робинсон
В ролях: Линдси Лохан, Майкл Китон, Мэтт Диллон, Брекин Мейер, Джастин Лонг, Шерил Хайнс, Джимми Симпсон, Джилл Ричи, Томас Леннон, Джереми Робертс

О фильме:
Херби — классический Фольксваген «Жук». Он немного странный, в его механическом теле живет нежная и ранимая душа романтика и мечта стать победителем самых престижных кольцевых гонок мира. Наконец его мечта приближается к реальности — знаменитая машина попадает на гонки NASCAR. Новая владелица Херби, обладающая вздорным нравом и желанием побеждать, мечтает о том же — теперь они готовы покорить эту головокружительную высоту вместе!



Производство: США, Robert Simonds Productions, Walt Disney Pictures
Продолжительность: 01:41:05
Перевод: Дублированный (Невафильм), профессиональный многоголосый (Tycoon-Studio), профессиональный многоголосый (СТС)
Оригинальная аудио-дорожка: Нет

Файл
Кодек: XviD
Качество: WEB-DLRip [Исходник: WEB-DL (720p) от HDClub | iTunes]
Видео: XviD, 720x384 (1.875), 1681 Кбит/с, 23,976 кадр/с
Аудио #1: Русский, Dolby AC3, 48000 Гц, 384 Кбит/с, 6 каналов (5.1) - DUB [Невафильм]
Аудио #2: Русский, Dolby AC3, 48000 Гц, 448 Кбит/с, 6 каналов (5.1) - MVO [Tycoon-Studio]
Аудио #3: Русский, Dolby AC3, 48000 Гц, 192 Кбит/с, 2 канала (Стерео) - MVO [СТС]
Субтитры: Нет

General
Complete name : Herbie.Fully.Loaded.2005.Triple.WEB-DLRip.avi
Format : AVI
Format/Info : Audio Video Interleave
Format profile : OpenDML
File size : 2.19 GiB
Duration : 1h 41mn
Overall bit rate : 3 095 Kbps
Movie name : Сумасшедшие гонки / Хёрби-победитель / Herbie: Fully Loaded (2005) WEB-DLRip
Writing application : VirtualDubMod 1.5.10.3 | www.virtualdub-fr.org || (build 2550/release)
Writing library : VirtualDubMod build 2550/release
Copyright : rip by ivandubskoj

Video
ID : 0
Format : MPEG-4 Visual
Format profile : Advanced Simple@L5
Format settings, BVOP : 1
Format settings, QPel : No
Format settings, GMC : No warppoints
Format settings, Matrix : Custom
Codec ID : XVID
Codec ID/Hint : XviD
Duration : 1h 41mn
Bit rate : 2 069 Kbps
Width : 720 pixels
Height : 384 pixels
Display aspect ratio : 1.875
Frame rate : 23.976 fps
Color space : YUV
Chroma subsampling : 4:2:0
Bit depth : 8 bits
Scan type : Progressive
Compression mode : Lossy
Bits/(Pixel*Frame) : 0.312
Stream size : 1.46 GiB (67%)
Writing library : XviD 73

Audio #1
ID : 1
Format : AC-3
Format/Info : Audio Coding 3
Mode extension : CM (complete main)
Codec ID : 2000
Duration : 1h 40mn
Bit rate mode : Constant
Bit rate : 384 Kbps
Channel(s) : 6 channels
Channel positions : Front: L C R, Side: L R, LFE
Sampling rate : 48.0 KHz
Bit depth : 16 bits
Compression mode : Lossy
Stream size : 277 MiB (12%)
Alignment : Split accross interleaves
Interleave, duration : 64 ms (1.54 video frames)
Interleave, preload duration : 500 ms
Title : Russian, DUB [Невафильм]

Audio #2
ID : 2
Format : AC-3
Format/Info : Audio Coding 3
Mode extension : CM (complete main)
Codec ID : 2000
Duration : 1h 40mn
Bit rate mode : Constant
Bit rate : 448 Kbps
Channel(s) : 6 channels
Channel positions : Front: L C R, Side: L R, LFE
Sampling rate : 48.0 KHz
Bit depth : 16 bits
Compression mode : Lossy
Delay relative to video : 1s 0ms
Stream size : 322 MiB (14%)
Alignment : Split accross interleaves
Interleave, duration : 64 ms (1.54 video frames)
Interleave, preload duration : 500 ms
Title : Russian, MVO [Tycoon-Studio]

Audio #3
ID : 3
Format : AC-3
Format/Info : Audio Coding 3
Mode extension : CM (complete main)
Codec ID : 2000
Duration : 1h 35mn
Bit rate mode : Constant
Bit rate : 192 Kbps
Channel(s) : 2 channels
Channel positions : Front: L R
Sampling rate : 48.0 KHz
Bit depth : 16 bits
Compression mode : Lossy
Delay relative to video : 2s 0ms
Stream size : 130 MiB (6%)
Alignment : Split accross interleaves
Interleave, duration : 68 ms (1.63 video frames)
Interleave, preload duration : 500 ms
Title : Russian, MVO [СТС]
Автор рипа - ivandubskoj



Скачать Сумасшедшие.гонки.Herbie.Fully.Loaded.(Анджела.Робинсон).[2005.комедия.приключения.семейный.спорт.фэнтези.WEB-DLRip].[Dub]+[MVO]x2.torrent без регистрации
Золото ЗОЛОТАЯ РАЗДАЧА! СКАЧАННОЕ НЕ ЗАСЧИТЫВАЕТСЯ! Золото
Дата: Зарегистрирован   [ Тип: внутренний ] Как тут cкачать?
MAGNET ссылка
MAGNET ссылка


Скачать .torrent

12 KB

Статус: проверено DHT
Скачан: торрент - 104 раз, раздача полностью - 4 раз
Размер: 2,19 GB
Оценка:  - (Голосов: 0)
Поблагодарили: 0
Поделиться ссылкой на эту раздачу с друзьями:
В контактеFacebookОдноклассникиTwitterLivejournalМой МирLiveinternet
 

 
Показать сообщения:    


Вы не можете начинать темы
Вы не можете отвечать на сообщения
Вы не можете редактировать свои сообщения
Вы не можете удалять свои сообщения
Вы не можете голосовать в опросах
Вы не можете прикреплять файлы к сообщениям
Вы можете скачивать файлы