Loading...
Error

Скачать Сумасшедшие гонки / Herbie: Fully Loaded (Анджела Робинсон) [2005, комедия, приключения, семейный, спорт, фэнтези, WEB-DLRip] [Dub] торрент без регистрации

 
Статистика раздачи
Размер:  1,46 GB   |    Скачан:  95 раз
Сидов:  1  [  0 KB/s  ]  
 
Автор Сообщение

Marsianka

[] 

Информация о фильме
Название: Сумасшедшие гонки
Оригинальное название: Herbie: Fully Loaded
Год выхода: 2005
Жанр: комедия, приключения, семейный, спорт, фэнтези
Режиссёр: Анджела Робинсон
В ролях: Линдси Лохан, Майкл Китон, Мэтт Диллон, Брекин Мейер, Джастин Лонг, Шерил Хайнс, Джимми Симпсон, Джилл Ричи, Томас Леннон, Джереми Робертс

О фильме:
Херби — классический Фольксваген «Жук». Он немного странный, в его механическом теле живет нежная и ранимая душа романтика и мечта стать победителем самых престижных кольцевых гонок мира. Наконец его мечта приближается к реальности — знаменитая машина попадает на гонки NASCAR. Новая владелица Херби, обладающая вздорным нравом и желанием побеждать, мечтает о том же — теперь они готовы покорить эту головокружительную высоту вместе!



Производство: США, Robert Simonds Productions, Walt Disney Pictures
Продолжительность: 01:40:55
Перевод: Дублированный (Невафильм) | iTunes
Оригинальная аудио-дорожка: Нет

Файл
Кодек: XviD
Качество: WEB-DLRip [Исходник: WEB-DL (720p) от HDClub | iTunes]
Видео: XviD, 720x384 (1.875), 1681 Кбит/с, 23,976 кадр/с
Аудио: Русский, Dolby AC3, 48000 Гц, 384 Кбит/с, 6 каналов (5.1) - DUB [Невафильм]
Субтитры: Нет


General
Complete name : Herbie.Fully.Loaded.2005.WEB-DLRip.avi
Format : AVI
Format/Info : Audio Video Interleave
File size : 1.46 GiB
Duration : 1h 41mn
Overall bit rate : 2 072 Kbps
Writing application : VirtualDubMod 1.5.10.3 | www.virtualdub-fr.org || (build 2550/release)
Writing library : VirtualDubMod build 2550/release
Copyright : rip by ivandubskoj

Video
ID : 0
Format : MPEG-4 Visual
Format profile : Advanced Simple@L5
Format settings, BVOP : 1
Format settings, QPel : No
Format settings, GMC : No warppoints
Format settings, Matrix : Custom
Codec ID : XVID
Codec ID/Hint : XviD
Duration : 1h 41mn
Bit rate : 1 681 Kbps
Width : 720 pixels
Height : 384 pixels
Display aspect ratio : 1.875
Frame rate : 23.976 fps
Color space : YUV
Chroma subsampling : 4:2:0
Bit depth : 8 bits
Scan type : Progressive
Compression mode : Lossy
Bits/(Pixel*Frame) : 0.254
Stream size : 1.19 GiB (81%)
Writing library : XviD 73

Audio
ID : 1
Format : AC-3
Format/Info : Audio Coding 3
Mode extension : CM (complete main)
Codec ID : 2000
Duration : 1h 40mn
Bit rate mode : Constant
Bit rate : 384 Kbps
Channel(s) : 6 channels
Channel positions : Front: L C R, Side: L R, LFE
Sampling rate : 48.0 KHz
Bit depth : 16 bits
Compression mode : Lossy
Stream size : 277 MiB (19%)
Alignment : Split accross interleaves
Interleave, duration : 64 ms (1.54 video frames)
Interleave, preload duration : 500 ms
Автор рипа - ivandubskoj



Скачать Сумасшедшие.гонки.Herbie.Fully.Loaded.(Анджела.Робинсон).[2005.комедия.приключения.семейный.спорт.фэнтези.WEB-DLRip].[Dub].torrent без регистрации
Золото ЗОЛОТАЯ РАЗДАЧА! СКАЧАННОЕ НЕ ЗАСЧИТЫВАЕТСЯ! Золото
Дата: Зарегистрирован   [ Тип: внутренний ] Как тут cкачать?
MAGNET ссылка
MAGNET ссылка


Скачать .torrent

15 KB

Статус: проверено DHT
Скачан: торрент - 95 раз, раздача полностью - 16 раз
Размер: 1,46 GB
Оценка:  - (Голосов: 0)
Поблагодарили: 0
Поделиться ссылкой на эту раздачу с друзьями:
В контактеFacebookОдноклассникиTwitterLivejournalМой МирLiveinternet
 

 
Показать сообщения:    


Вы не можете начинать темы
Вы не можете отвечать на сообщения
Вы не можете редактировать свои сообщения
Вы не можете удалять свои сообщения
Вы не можете голосовать в опросах
Вы не можете прикреплять файлы к сообщениям
Вы можете скачивать файлы