Loading...
Error

Скачать Попутчик: Начало, или Кровавый автостоп / Autostop rosso sangue (Паскуале Феста Кампаниле) [1977, триллер, драма, криминал, BDRip-AVC] [MVO] торрент без регистрации

 
Статистика раздачи
Размер:  2,05 GB   |    Скачан:  114 раз
Сидов:  1  [  0 KB/s  ]  
 
Автор Сообщение

Marsianka

[] 

Попутчик: Начало, или Кровавый автостоп / Autostop rosso sangue (1977) BDRip-AVC

Информация о фильме
Название: Попутчик: Начало, или Кровавый автостоп
Оригинальное название: Autostop rosso sangue
Год выхода: 1977
Жанр: триллер, драма, криминал
Режиссер: Паскуале Феста Кампаниле

В ролях: Франко Неро, Коринн Клери, Дэвид Хесс, Джошуа Синклер, Карло Пури, Игнацио Спалла, Ли Ленуар, Моника Занчи, Бенито Пачифико, Анджело Рагуса

О фильме: Разваливающийся брак циничного и жестокого журналиста Уолтера Манчини и дочери его начальника ждет чудовищное испытание на прочность. На безлюдной дороге они подсадили в машину улыбчивого, кудрявого молодого человека, который услужливо готов распахнуть обреченной супружеской чете ворота в преисподнюю.



Страна: Италия
Продолжительность: 01:44:14
Перевод: Профессиональный (многоголосый закадровый)

Файл
Кодек: x.264
Качество: BDRip-AVC
Видео: 1024x560 (1,85:1), 23,976 fps, 2438 kbps, 0.177 bit/pixel
Звук: 48 kHz, AC3 Dolby Digital, 2 ch, ~384.00 kbps

Общее
Уникальный идентификатор : 182472005850024261407592686243291967582 (0x8946D47B65C2B7C7A952DD3F43C9B05E)
Полное имя : D:Autostop rosso sangue.1977.BDRip-AVC.mkv
Формат : Matroska
Версия формата : Version 4 / Version 2
Размер файла : 2,05 Гбайт
Продолжительность : 1 ч. 43 м.
Общий поток : 2823 Кбит/сек
Название фильма : Попутчик: Начало, или Кровавый автостоп / Autostop rosso sangue (1977) BDRip-AVC rip by Rulya74
Дата кодирования : UTC 2015-01-06 20:00:25
Программа кодирования : mkvmerge v7.4.0 ('Circles') 64bit built on Dec 12 2014 12:19:56
Библиотека кодирования : libebml v1.3.0 + libmatroska v1.4.1
DURATION : 01:43:44.288000000
NUMBER_OF_FRAMES : 194509
NUMBER_OF_BYTES : 298765824
_STATISTICS_WRITING_APP : mkvmerge v7.4.0 ('Circles') 64bit built on Dec 12 2014 12:19:56
_STATISTICS_WRITING_DATE_UTC : 2015-01-06 20:00:25
_STATISTICS_TAGS : BPS DURATION NUMBER_OF_FRAMES NUMBER_OF_BYTES

Видео
Идентификатор : 1
Формат : AVC
Формат/Информация : Advanced Video Codec
Профиль формата : High@L4.1
Параметр CABAC формата : Да
Параметр ReFrames формата : 9 кадров
Идентификатор кодека : V_MPEG4/ISO/AVC
Продолжительность : 1 ч. 43 м.
Битрейт : 2438 Кбит/сек
Ширина : 1024 пикселя
Высота : 560 пикселей
Соотношение сторон : 1,85:1
Режим частоты кадров : Постоянный
Частота кадров : 23,976 кадра/сек
Цветовое пространство : YUV
Субдискретизация насыщенности : 4:2:0
Битовая глубина : 8 бит
Тип развёртки : Прогрессивная
Бит/(Пиксели*Кадры) : 0.177
Размер потока : 1,73 Гбайт (84%)
Библиотека кодирования : x264 core 142 r2431 ac76440
Настройки программы : cabac=1 / ref=9 / deblock=1:-1:-1 / analyse=0x3:0x113 / me=umh / subme=11 / psy=1 / psy_rd=1.00:0.00 / mixed_ref=1 / me_range=48 / chroma_me=1 / trellis=2 / 8x8dct=1 / cqm=0 / deadzone=21,11 / fast_pskip=0 / chroma_qp_offset=-2 / threads=8 / lookahead_threads=1 / sliced_threads=0 / nr=0 / decimate=1 / interlaced=0 / bluray_compat=0 / constrained_intra=0 / bframes=6 / b_pyramid=2 / b_adapt=2 / b_bias=0 / direct=3 / weightb=1 / open_gop=0 / weightp=2 / keyint=240 / keyint_min=23 / scenecut=40 / intra_refresh=0 / rc_lookahead=40 / rc=2pass / mbtree=1 / bitrate=2438 / ratetol=1.0 / qcomp=0.60 / qpmin=0 / qpmax=69 / qpstep=4 / cplxblur=20.0 / qblur=0.5 / vbv_maxrate=62500 / vbv_bufsize=78125 / nal_hrd=none / filler=0 / ip_ratio=1.40 / aq=1:1.00
Default : Да
Forced : Нет

Аудио
Идентификатор : 2
Формат : AC-3
Формат/Информация : Audio Coding 3
Расширение режима : CM (complete main)
Параметр Endianness формата : Big
Идентификатор кодека : A_AC3
Продолжительность : 1 ч. 43 м.
Вид битрейта : Постоянный
Битрейт : 384 Кбит/сек
Каналы : 2 канала
Расположение каналов : Front: L R
Частота : 48,0 КГц
Битовая глубина : 16 бит
Метод сжатия : С потерями
Размер потока : 285 Мбайт (14%)
Заголовок : Профессиональный (многоголосый закадровый)
Язык : Russian
Default : Да
Forced : Нет



Скачать Попутчик.Начало.или.Кровавый.автостоп.Autostop.rosso.sangue.(Паскуале.Феста.Кампаниле).[1977.триллер.драма.криминал.BDRip-AVC].[MVO].torrent без регистрации
Золото ЗОЛОТАЯ РАЗДАЧА! СКАЧАННОЕ НЕ ЗАСЧИТЫВАЕТСЯ! Золото
Дата: Зарегистрирован   [ Тип: внутренний ] Как тут cкачать?
MAGNET ссылка
MAGNET ссылка


Скачать .torrent

11 KB

Статус: проверено DHT
Скачан: торрент - 114 раз, раздача полностью - 24 раз
Размер: 2,05 GB
Оценка:  - (Голосов: 0)
Поблагодарили: 1
Поделиться ссылкой на эту раздачу с друзьями:
В контактеFacebookОдноклассникиTwitterLivejournalМой МирLiveinternet
 

 
Показать сообщения:    


Вы не можете начинать темы
Вы не можете отвечать на сообщения
Вы не можете редактировать свои сообщения
Вы не можете удалять свои сообщения
Вы не можете голосовать в опросах
Вы не можете прикреплять файлы к сообщениям
Вы можете скачивать файлы