Loading...
Error

Скачать Оскар / Oscar (Эдуар Молинаро) [1967, комедия, HDRip] [Dub] торрент без регистрации

 
Статистика раздачи
Размер:  744 MB   |    Скачан:  99 раз
Сидов:  1  [  0 KB/s  ]  
 
Автор Сообщение

Marsianka

[] 

Оскар / Oscar
Страна: Франция
Жанр: комедия
Год выпуска: 1967
Продолжительность: 01:23:08

Перевод: Профессиональный (дублированный) Союзмультфильм
Cубтитры: нет
Оригинальная аудиодорожка: нет

Режиссер: Эдуар Молинаро / Edouard Molinaro

В ролях: Луи де Фюнес, Клод Риш, Марио Давид, Джермейн Дельба, Клоди Жансак, Агата Натансон, Доминик Паж, Поль Пребуа, Сильвия Сорель, Филипп Валлори

Описание: Бертран Барнье — крупный промышленник, к которому с утра пораньше является его управляющий Кристиан. Он заявляет, что любит его дочь Колет, а после этого признается, что украл у предпринимателя кругленькую сумму. Вдобавок бизнесмен узнает, что его горничная увольняется и в одночасье становится баронессой.

Колет заявляет, что беременна от бывшего шофера по имени Оскар. Кроме того, выяснятся, что она вовсе не дочь Барнье и, не желая оставаться старой девой, готова выйти замуж за любого встречного…

К тому же, к этой истории примешиваются два черных чемодана, один из которых набит деньгами и драгоценностям, а другой женским нижним бельем… Как тут, от такого потока событий, происходящих в течение одного дня, «бедному» Бертрану не сойти с ума?!



Качество: HDRip [Oscar.1967.720p.WEB-DL.6xRus.Fre.Sub.HDCLUB]
Контейнер: AVI
Видео кодек: XviD
Аудио кодек: MP3
Видео: 688x288 (2.39:1), 24.000 fps, XviD build 73 ~1113 kbps avg, 0.23 bit/pixel
Аудио: 48 kHz, MPEG Layer 3, 2 ch, ~128.00 kbps avg
Раздача от:
D:Мои рипыOscar.1967.HDRip.745mb.dexter_lex.avi
General
Complete name : D:Мои рипыOscar.1967.HDRip.745mb.dexter_lex.avi
Format : AVI
Format/Info : Audio Video Interleave
File size : 744 MiB
Duration : 1h 23mn
Overall bit rate : 1 251 Kbps
Writing application : VirtualDubMod 1.5.10.3 | www.virtualdub-fr.org || (build 2550/release)
Writing library : VirtualDubMod build 2550/release
Video #0
ID : 0
Format : MPEG-4 Visual
Format profile : Advanced Simple@L5
Format settings, BVOP : 1
Format settings, QPel : No
Format settings, GMC : No warppoints
Format settings, Matrix : Custom
Codec ID : XVID
Codec ID/Hint : XviD
Duration : 1h 23mn
Bit rate : 1 114 Kbps
Width : 688 pixels
Height : 288 pixels
Display aspect ratio : 2.40:1
Frame rate : 24.000 fps
Color space : YUV
Chroma subsampling : 4:2:0
Bit depth : 8 bits
Scan type : Progressive
Compression mode : Lossy
Bits/(Pixel*Frame) : 0.234
Stream size : 662 MiB (89%)
Writing library : XviD 73
Audio #1
ID : 1
Format : MPEG Audio
Format version : Version 1
Format profile : Layer 3
Codec ID : 55
Codec ID/Hint : MP3
Duration : 1h 23mn
Bit rate mode : Constant
Bit rate : 128 Kbps
Channel(s) : 2 channels
Sampling rate : 48.0 KHz
Compression mode : Lossy
Stream size : 76.1 MiB (10%)
Alignment : Aligned on interleaves
Interleave, duration : 42 ms (1.00 video frame)
Interleave, preload duration : 504 ms
Writing library : LAME3.99r
Encoding settings : -m s -V 4 -q 2 -lowpass 17 -b 128



Скачать Оскар.Oscar.(Эдуар.Молинаро).[1967.комедия.HDRip].[Dub].torrent без регистрации
Золото ЗОЛОТАЯ РАЗДАЧА! СКАЧАННОЕ НЕ ЗАСЧИТЫВАЕТСЯ! Золото
Дата: Зарегистрирован   [ Тип: внутренний ] Как тут cкачать?
MAGNET ссылка
MAGNET ссылка


Скачать .torrent

15 KB

Статус: проверено DHT
Скачан: торрент - 99 раз, раздача полностью - 3 раз
Размер: 744 MB
Оценка:  - (Голосов: 0)
Поблагодарили: 0
Поделиться ссылкой на эту раздачу с друзьями:
В контактеFacebookОдноклассникиTwitterLivejournalМой МирLiveinternet
 

 
Показать сообщения:    


Вы не можете начинать темы
Вы не можете отвечать на сообщения
Вы не можете редактировать свои сообщения
Вы не можете удалять свои сообщения
Вы не можете голосовать в опросах
Вы не можете прикреплять файлы к сообщениям
Вы можете скачивать файлы