Loading...
Error

Скачать Астральное кунг-фу / Quan jing (Вэй Ло) [1978, боевик, комедия, BDRip-AVC] [MVO]+[AVO]+[Dub]+[Sub]x2 торрент без регистрации

 
Статистика раздачи
Размер:  2,78 GB   |    Скачан:  127 раз
Сидов:  1  [  0 KB/s  ]  
 
Автор Сообщение

Marsianka

[] 

Информация о фильме
Название: Астральное кунг-фу
Оригинальное название: Quan jing / Spiritual Kung Fu
Год выхода: 1978
Жанр: боевик, комедия
Режиссер: Вэй Ло
В ролях: Джеки Чан, Чи-пинг Чанг, Сиу-йи Фэн, Хонг Хсю, Чинг Фу Ли, Хай Ланг Ли, Танг Чун Ли, Вэнь Таи Ли, Кенг Пенг, Ли Рун Чен

О фильме: Джеки — молодой, озорной хулиган, стоящий на страже замка Шаолиня. Во время его поста крадут очень ценную, обладающую огромной силой, книгу «Шестикулачное Кунг-фу». Как выясняется позже, ее украл зловещий воин, который хочет подчинить себе Все кланы. В библиотеке, где он часто бывает, Джеки знакомится с пятью странными призраками, которые обучают его животным стилям Кунг-фу: Дракон, Змея, Журавль, Тигр и Леопард. Теперь ему предстоит использовать все, чему он научился, в битве за будущее каждого...



Страна: Гонконг, Тайвань
Студия: Lo Wei Motion Picture Co.
Продолжительность: 01:38:53
Перевод: Профессиональный многоголосый, авторский одноголосый (Дольский)

Файл
Кодек: MPEG-4 AVC
Качество: BDRip-AVC
Видео: 3000 Кбит/с, 1024x430, 23.976 кадр/с

Аудио #1: Русский (AC3, 2 ch, 192 Кбит/с) / Профессиональный многоголосый (ДТВ)
Аудио #2: Русский (AC3, 2 ch, 192 Кбит/с) / Авторский одноголосый (Дольский)
Аудио #3: Английский (AC3, 6 ch, 448 Кбит/с) / Дублированный
Аудио #4: Китайский (AC3, 2 ch, 192 Кбит/с)
Субтитры: Русские (Gellard), английские
Семпл
Общее
Уникальный идентификатор : 209813770144974434702552353617236889155 (0x9DD8A98A4F741A63825E5C8C37468E43)
Полное имя : D:Мои РипыAstralnoe.kung.fu.1978.x264.BDRip.AVC.MediaClub.mkv
Формат : Matroska
Версия формата : Version 4 / Version 2
Размер файла : 2,78 Гбайт
Продолжительность : 1 ч. 38 м.
Общий поток : 4027 Кбит/сек
Название фильма : = MediaClub = rip by krakatuq
Дата кодирования : UTC 2015-04-11 09:34:06
Программа кодирования : mkvmerge v6.6.0 ('The Edge Of The In Between') built on Dec 1 2013 17:55:00
Библиотека кодирования : libebml v1.3.0 + libmatroska v1.4.1

Видео
Идентификатор : 1
Формат : AVC
Формат/Информация : Advanced Video Codec
Профиль формата : High@L4.1
Параметр CABAC формата : Да
Параметр ReFrames формата : 11 кадров
Идентификатор кодека : V_MPEG4/ISO/AVC
Продолжительность : 1 ч. 38 м.
Битрейт : 3000 Кбит/сек
Ширина : 1024 пикселя
Высота : 430 пикселей
Соотношение сторон : 2,40:1
Режим частоты кадров : Постоянный
Частота кадров : 23,976 кадра/сек
Цветовое пространство : YUV
Субдискретизация насыщенности : 4:2:0
Битовая глубина : 8 бит
Тип развёртки : Прогрессивная
Бит/(Пиксели*Кадры) : 0.284
Размер потока : 2,02 Гбайт (73%)
Заголовок : Astralnoe.kung.fu.1978.x264.BDRip.AVC.MediaClub
Библиотека кодирования : x264 core 142 r2409+42 04be48a tMod [8-bit@4:2:0 X86]
Настройки программы : cabac=1 / ref=11 / deblock=1:-3:-3 / analyse=0x3:0x133 / me=umh / subme=11 / psy=1 / fade_compensate=0.00 / psy_rd=1.00:0.25 / mixed_ref=1 / me_range=32 / chroma_me=1 / trellis=2 / 8x8dct=1 / cqm=0 / deadzone=21,11 / fast_pskip=0 / chroma_qp_offset=-4 / threads=3 / lookahead_threads=1 / sliced_threads=0 / nr=0 / decimate=0 / interlaced=0 / bluray_compat=0 / constrained_intra=0 / fgo=0 / bframes=9 / b_pyramid=2 / b_adapt=2 / b_bias=0 / direct=3 / weightb=1 / open_gop=0 / weightp=2 / keyint=240 / keyint_min=23 / scenecut=40 / intra_refresh=0 / rc=2pass / mbtree=0 / bitrate=3000 / ratetol=1.0 / qcomp=0.60 / qpmin=0:0:0 / qpmax=69:69:69 / qpstep=4 / cplxblur=20.0 / qblur=0.5 / ip_ratio=1.40 / pb_ratio=1.30 / aq=2:1.00 / aq-sensitivity=10.00 / aq-factor=1.00:1.00:1.00 / aq2=0 / aq3=0
Язык : Chinese
Default : Да
Forced : Нет

Аудио #1
Идентификатор : 2
Формат : AC-3
Формат/Информация : Audio Coding 3
Расширение режима : CM (complete main)
Параметр Endianness формата : Big
Идентификатор кодека : A_AC3
Продолжительность : 1 ч. 38 м.
Вид битрейта : Постоянный
Битрейт : 192 Кбит/сек
Каналы : 2 канала
Расположение каналов : Front: L R
Частота : 48,0 КГц
Битовая глубина : 16 бит
Метод сжатия : С потерями
Размер потока : 136 Мбайт (5%)
Заголовок : TRACK_01_MVO_RUS_ДТВ
Язык : Russian
Default : Да
Forced : Да

Аудио #2
Идентификатор : 3
Формат : AC-3
Формат/Информация : Audio Coding 3
Расширение режима : CM (complete main)
Параметр Endianness формата : Big
Идентификатор кодека : A_AC3
Продолжительность : 1 ч. 38 м.
Вид битрейта : Постоянный
Битрейт : 192 Кбит/сек
Каналы : 2 канала
Расположение каналов : Front: L R
Частота : 48,0 КГц
Битовая глубина : 16 бит
Метод сжатия : С потерями
Размер потока : 136 Мбайт (5%)
Заголовок : TRACK_02_AVO_RUS_DOLSKIJ
Язык : Russian
Default : Нет
Forced : Нет

Аудио #3
Идентификатор : 4
Формат : AC-3
Формат/Информация : Audio Coding 3
Расширение режима : CM (complete main)
Параметр Endianness формата : Big
Идентификатор кодека : A_AC3
Продолжительность : 1 ч. 38 м.
Вид битрейта : Постоянный
Битрейт : 448 Кбит/сек
Каналы : 6 каналов
Расположение каналов : Front: L C R, Side: L R, LFE
Частота : 48,0 КГц
Битовая глубина : 16 бит
Метод сжатия : С потерями
Размер потока : 317 Мбайт (11%)
Заголовок : TRACK_03_DUB_ENG
Язык : English
Default : Нет
Forced : Нет

Аудио #4
Идентификатор : 5
Формат : AC-3
Формат/Информация : Audio Coding 3
Расширение режима : CM (complete main)
Параметр Endianness формата : Big
Идентификатор кодека : A_AC3
Продолжительность : 1 ч. 38 м.
Вид битрейта : Постоянный
Битрейт : 192 Кбит/сек
Каналы : 2 канала
Расположение каналов : Front: L R
Частота : 48,0 КГц
Битовая глубина : 16 бит
Метод сжатия : С потерями
Размер потока : 136 Мбайт (5%)
Заголовок : TRACK_04_ORIGINAL_CHI
Язык : Chinese
Default : Нет
Forced : Нет

Текст #1
Идентификатор : 6
Формат : UTF-8
Идентификатор кодека : S_TEXT/UTF8
Идентификатор кодека/Информация : UTF-8 Plain Text
Заголовок : TEXT_01_SUB_RUS_GELLARD
Язык : Russian
Default : Нет
Forced : Нет

Текст #2
Идентификатор : 7
Формат : UTF-8
Идентификатор кодека : S_TEXT/UTF8
Идентификатор кодека/Информация : UTF-8 Plain Text
Заголовок : TEXT_02_SUB_ENG
Язык : English
Default : Нет
Forced : Нет

Меню
00:00:00.000 : en:00:00:00.000
00:08:08.279 : en:00:08:08.279
00:16:13.514 : en:00:16:13.514
00:24:54.993 : en:00:24:54.993
00:34:27.940 : en:00:34:27.940
00:41:29.195 : en:00:41:29.195
00:51:23.872 : en:00:51:23.872
00:58:11.779 : en:00:58:11.779
01:06:29.944 : en:01:06:29.944
01:15:34.529 : en:01:15:34.529
01:24:09.586 : en:01:24:09.586
01:32:52.650 : en:01:32:52.650

x264 log
x264 [info]: frame I:955 Avg QP:19.23 size: 71539
x264 [info]: frame P:34389 Avg QP:21.90 size: 27726
x264 [info]: frame B:106927 Avg QP:23.02 size: 11259
Релиз от: | Автор рипа:



Скачать Астральное.кунг-фу.Quan.jing.(Вэй.Ло).[1978.боевик.комедия.BDRip-AVC].[MVO]+[AVO]+[Dub]+[Sub]x2.torrent без регистрации
Золото ЗОЛОТАЯ РАЗДАЧА! СКАЧАННОЕ НЕ ЗАСЧИТЫВАЕТСЯ! Золото
Дата: Зарегистрирован   [ Тип: внутренний ] Как тут cкачать?
MAGNET ссылка
MAGNET ссылка


Скачать .torrent

15 KB

Статус: проверено DHT
Скачан: торрент - 127 раз, раздача полностью - 3 раз
Размер: 2,78 GB
Оценка:  4 (Голосов: 1)
Поблагодарили: 3
Поделиться ссылкой на эту раздачу с друзьями:
В контактеFacebookОдноклассникиTwitterLivejournalМой МирLiveinternet
 

 
Показать сообщения:    


Вы не можете начинать темы
Вы не можете отвечать на сообщения
Вы не можете редактировать свои сообщения
Вы не можете удалять свои сообщения
Вы не можете голосовать в опросах
Вы не можете прикреплять файлы к сообщениям
Вы можете скачивать файлы