Loading...
Error

Скачать Подозреваемые / В поле зрения / Person of Interest (сезон 04) (Ричард Дж) и др.) [2014-2015, боевик, триллер, драма, детектив, WEB-DL] [1080p] [MVO (LostFilm, NewStudio)]+[Eng]+[Sub Rus, Eng] торрент без регистрации

 
Статистика раздачи
Размер:  40,94 GB   |    Скачан:  160 раз
Сидов:  1  [  0 KB/s  ]  
 
Автор Сообщение

МихаНЕзатор

[] 

Информация о фильме
Название: Подозреваемые / В поле зрения
Оригинальное название: Person of Interest
Год выхода: 2014-2015
Жанр: боевик, триллер, драма, детектив
Режиссер: Ричард Дж. Льюис, Джеффри Дж. Хант, Фред Туа

В ролях: ТДжеймс Кэвизел, Майкл Эмерсон, Тараджи П. Хенсон, Кевин Чэпмен, Роберт Джон Бёрк, Бреннан Браун, Эл Сапьенза, Энрико Колантони, Бретт Каллен, Джей О. Сэндерс

О фильме: Предполагаемо погибший бывший агент ЦРУ Риз объединяется с таинственным миллионером чтобы предотвращать преступления. Подготовка Риза в проведении операций под прикрытием привлекает внимание миллионера Финча, гения-программиста, который изобрел программу, позволяющую предсказывать преступные склонности людей на базе анализа поведения. Используя последние достижения техники, эти двое часто преступают закон, используя навыки Риза и бесконечное богатство Финча, и останавливают преступников еще до совершения преступления. Действия Риза привлекают к себе внимание детектива Картер из отдела убийств и полицейского Фуско, которого Риз использует в своих целях. Риз и Финч понимают, что правильный человек с правильной информацией в нужное время и в нужном месте может изменить все.



Страна: США, Bad Robot, Kilter Films, Warner Bros. Television
Продолжительность: ~00:43:00 серия
Перевод:
Многоголосый закадровый, профессиональный | LostFilm
Многоголосый закадровый, профессиональный | NewStudio

Файл
Кодек: MPEG-4 AVC/H.264
Качество: WEB-DL 1080р
Видео: MPEG-4 AVC, 1916x1076 (1.778), 23.976 fps, ~4660 kbps
Звук:
Аудио rus: AC-3, 48 KHz, 6 ch, 384 kbps | LostFilm
Аудио rus: AC-3, 48 KHz, 6 ch, 384 kbps | NewStudio
Аудио eng: AC-3, 48 KHz, 6 ch, 384 kbps
Субтитры: русские (notabenoid), английские

Релиз от: skyns61

АНОНСЫ ПОПУЛЯРНЫХ РАЗДАЧ


Торрент обновлён, добавлена 22-я серия!

01. Panopticon / Паноптикум
02. Nautilus / Наутилус
03. Wingman / Сводник
04. Brotherhood / Братство
05. Prophets / Пророки
06. Pretenders / Притворщики
07. Honor Among Thieves / Воровская честь
08. Point of Origin / Точка отсчёта
09. The Devil You Know / Дьявол, которого знаешь
10. The Cold War / Холодная война
11. If-Then-Else / Если-Тогда-Иначе
12. Control-Alt-Delete
13. M.I.A. / Пропавшая без вести
14. Guilty / Виновен
15. Q&A / Вопросы и ответы
16. Blunt / Косяк
17. Karma / Карма
18. Skip / Отмена
19. Найти и уничтожить /Search and Destroy
20. Терра инкогнита /Terra Incognita
21. Психушка /Asylum
22. Яхве /YHWH

Монтаж: Skyns61
Работа со звуком LostFilm, синхронизация субтитров: с 1-18 серии vlaluk, с 19 серии Skyns61
Выделенный Voiceover от «LostFilm» был наложен на центр оригинального AC3

Общее
Уникальный идентификатор : 218529239862391164843834425884209180758 (0xA467335F9A083CA789C8EB485F79F056)
Полное имя : G:FilmsPerson.of.Interest.s04.1080p.WEB-DL.2xRus.EngPerson.of.Interest.S04E01.1080p.WEB-DL.2xRus.Eng.mkv
Формат : Matroska
Версия формата : Version 4 / Version 2
Размер файла : 1,81 Гбайт
Продолжительность : 43 м.
Общий поток : 5930 Кбит/сек
Дата кодирования : UTC 2015-04-11 09:49:50
Программа кодирования : mkvmerge v7.8.0 ('River Man') 64bit built on Mar 27 2015 16:31:37
Библиотека кодирования : libebml v1.3.1 + libmatroska v1.4.2
DURATION : 00:42:59.942000000
NUMBER_OF_FRAMES : 930
NUMBER_OF_BYTES : 36979
_STATISTICS_WRITING_APP : mkvmerge v7.8.0 ('River Man') 64bit built on Mar 27 2015 16:31:37
_STATISTICS_WRITING_DATE_UTC : 2015-04-11 09:49:50
_STATISTICS_TAGS : BPS DURATION NUMBER_OF_FRAMES NUMBER_OF_BYTES

Видео
Идентификатор : 1
Формат : AVC
Формат/Информация : Advanced Video Codec
Профиль формата : High@L4.0
Параметр CABAC формата : Да
Параметр ReFrames формата : 4 кадра
Идентификатор кодека : V_MPEG4/ISO/AVC
Продолжительность : 43 м.
Битрейт : 4660 Кбит/сек
Ширина : 1916 пикселей
Высота : 1076 пикселей
Соотношение сторон : 16:9
Режим частоты кадров : Постоянный
Частота кадров : 23,976 кадра/сек
Цветовое пространство : YUV
Субдискретизация насыщенности : 4:2:0
Битовая глубина : 8 бит
Тип развёртки : Прогрессивная
Бит/(Пиксели*Кадры) : 0.094
Размер потока : 1,42 Гбайт (79%)
Язык : English
Default : Нет
Forced : Нет
Основные цвета : BT.709
Характеристики трансфера : BT.709
Коэффициенты матрицы : BT.709

Аудио #1
Идентификатор : 2
Формат : AC-3
Формат/Информация : Audio Coding 3
Расширение режима : CM (complete main)
Параметр Endianness формата : Big
Идентификатор кодека : A_AC3
Продолжительность : 43 м.
Вид битрейта : Постоянный
Битрейт : 384 Кбит/сек
Каналы : 6 каналов
Расположение каналов : Front: L C R, Side: L R, LFE
Частота : 48,0 КГц
Битовая глубина : 16 бит
Метод сжатия : С потерями
Размер потока : 120 Мбайт (6%)
Заголовок : LostFilm 5.1
Язык : Russian
Default : Да
Forced : Нет

Аудио #2
Идентификатор : 3
Формат : AC-3
Формат/Информация : Audio Coding 3
Расширение режима : CM (complete main)
Параметр Endianness формата : Big
Идентификатор кодека : A_AC3
Продолжительность : 43 м.
Вид битрейта : Постоянный
Битрейт : 384 Кбит/сек
Каналы : 6 каналов
Расположение каналов : Front: L C R, Side: L R, LFE
Частота : 48,0 КГц
Битовая глубина : 16 бит
Метод сжатия : С потерями
Размер потока : 120 Мбайт (6%)
Заголовок : NewStudio 5.1
Язык : Russian
Default : Нет
Forced : Нет

Аудио #3
Идентификатор : 4
Формат : AC-3
Формат/Информация : Audio Coding 3
Расширение режима : CM (complete main)
Параметр Endianness формата : Big
Идентификатор кодека : A_AC3
Продолжительность : 43 м.
Вид битрейта : Постоянный
Битрейт : 384 Кбит/сек
Каналы : 6 каналов
Расположение каналов : Front: L C R, Side: L R, LFE
Частота : 48,0 КГц
Битовая глубина : 16 бит
Метод сжатия : С потерями
Размер потока : 120 Мбайт (6%)
Заголовок : original
Язык : English
Default : Нет
Forced : Нет

Текст #1
Идентификатор : 5
Формат : UTF-8
Идентификатор кодека : S_TEXT/UTF8
Идентификатор кодека/Информация : UTF-8 Plain Text
Заголовок : rus
Язык : Russian
Default : Нет
Forced : Нет

Текст #2
Идентификатор : 6
Формат : UTF-8
Идентификатор кодека : S_TEXT/UTF8
Идентификатор кодека/Информация : UTF-8 Plain Text
Заголовок : CC
Язык : English
Default : Нет
Forced : Нет

Когда раздача ведётся путём добавления новых серий, при каждом добавлении создётся новый торрент. Чтобы начать докачку новой серии, пользователям необходимо сделать следующее:
(1) остановить скачивание,
(2) удалить старый торрент у себя из клиента (старые серии удалять не надо),
(3) скачать новый торрент и запустить его у себя в клиенте вместо старого, при этом указать клиенту путь в старую папку, куда и должно происходить скачивание новых серий.
Ваш клиент при этом должен произвести хеширование (проверку) старой папки (если не производит сам - помогите ему сделать это), и будет докачивать только те серии, которых у вас ещё нет. Старые серии при этом не удаляются, а продолжают раздаваться!
Eсли вы уже удалили старые серии, то предотвратить повторную закачку старых серий можно, отжав галочку в соответсвующих местах при запуске нового торрента. По возможности, желательно не удалять старые серии как можно дольше, чтобы релизёр не столько продолжал раздавать старые серии, а смог сконцентрироваться на новых.



Скачать Подозреваемые.В.поле.зрения.Person.of.Interest.(сезон.04).(Ричард.Дж).и.др.).[2014-2015.боевик.триллер.драма.детектив.WEB-DL].[1080p].[MVO.(LostFilm.NewStudio)]+[Eng]+[Sub.Rus.Eng].torrent без регистрации
Золото ЗОЛОТАЯ РАЗДАЧА! СКАЧАННОЕ НЕ ЗАСЧИТЫВАЕТСЯ! Золото
Дата: Зарегистрирован   [ Тип: внутренний ] Как тут cкачать?
MAGNET ссылка
MAGNET ссылка


Скачать .torrent

105 KB

Статус: проверено DHT
Скачан: торрент - 160 раз, раздача полностью - 23 раз
Размер: 40,94 GB
Оценка:  - (Голосов: 0)
Поблагодарили: 1
Поделиться ссылкой на эту раздачу с друзьями:
В контактеFacebookОдноклассникиTwitterLivejournalМой МирLiveinternet
 

 
Показать сообщения:    


Вы не можете начинать темы
Вы не можете отвечать на сообщения
Вы не можете редактировать свои сообщения
Вы не можете удалять свои сообщения
Вы не можете голосовать в опросах
Вы не можете прикреплять файлы к сообщениям
Вы можете скачивать файлы