Loading...
Error

Скачать Оно / It (Томми Ли Уоллес) [1990, ужасы, триллер, драма, детектив, DVDRip-AVC] 2x[AVO (Горчаков, Живов)] + [Dub] + [Original, Eng] торрент без регистрации

 
Статистика раздачи
Размер:  4,37 GB   |    Скачан:  126 раз
Сидов:  1  [  0 KB/s  ]  
 
Автор Сообщение

sobmaster

[] 

Оно / It


Информация о фильме
Название: Оно
Оригинальное название: It
Год выхода: 1990
Жанр: ужасы, триллер, драма, детектив
Режиссер: Томми Ли Уоллес
В ролях: Тим Карри, Гарри Андерсон, Деннис Кристофер, Ричард Мейсер, Аннетт О’Тул, Тим Рейд, Джон Риттер, Ричард Томас, Сет Грин, Джонатан Брэндис

О фильме:
Из царства смерти появилось новое леденящее воплощение ужаса. ОНО притаилось в тени повсюду. И вот несколько школьных друзей, возвращаясь домой, должны встретиться с ЭТИМ лицом к лицу.
ОНО знает все их страхи, как бы глубоко запрятаны они ни были, ОНО черпает силу из ненависти и разочарования. Существо, не имеющее названия и четкой формы, питающееся тем гадким и злым, что притаилось в них.




Страна: США, Канада
Студия: Green/Epstein Productions, Konigsberg/Sanitsky Company, Lorimar Television
Продолжительность: 03:07:24
Перевод: Авторский одноголосый [Горчаков]
Авторский одноголосый [Живов]
Профессиональный [полное дублирование]

Файл
Кодек: AVC
Качество: DVDRip-AVC
Видео: 720x400, 2568 kbps, 23.976 fps, 0.372 Bits/(Pixel*Frame)
Звук:
AC3, 48 kHz, 2 ch, 192 kbps - Горчаков
AC3, 48 kHz, 2 ch, 192 kbps - Живов
AC3, 48 kHz, 2 ch, 192 kbps - Дубляж
AC3, 48 kHz, 2 ch, 192 kbps - Оригинал (english)
Субтитры: Нет

Релиз от:

Автор рипа: _Bathory_


АНОНСЫ ПОПУЛЯРНЫХ РАЗДАЧ

Код:

General
Unique ID                                : 254029599739898793460602499915829701992 (0xBF1C52400F59EC76A6B4F1B8D38B6D68)
Complete name                            : E:it.1990.DVDRip-AVC.be_Bathory.mkv
Format                                   : Matroska
Format version                           : Version 2
File size                                : 4.37 GiB
Duration                                 : 3h 7mn
Overall bit rate                         : 3 338 Kbps
Encoded date                             : UTC 2013-10-14 10:24:44
Writing application                      : mkvmerge v6.2.0 ('Promised Land') built on Apr 28 2013 12:22:01
Writing library                          : libebml v1.3.0 + libmatroska v1.4.0

Video
ID                                       : 1
Format                                   : AVC
Format/Info                              : Advanced Video Codec
Format profile                           : Main@L4.1
Format settings, CABAC                   : Yes
Format settings, ReFrames                : 16 frames
Codec ID                                 : V_MPEG4/ISO/AVC
Duration                                 : 3h 7mn
Bit rate                                 : 2 568 Kbps
Width                                    : 720 pixels
Height                                   : 400 pixels
Display aspect ratio                     : 16:9
Frame rate mode                          : Constant
Frame rate                               : 23.976 fps
Color space                              : YUV
Chroma subsampling                       : 4:2:0
Bit depth                                : 8 bits
Scan type                                : Progressive
Bits/(Pixel*Frame)                       : 0.372
Stream size                              : 3.28 GiB (75%)
Writing library                          : x264 core 133 r2334 a3ac64b
Encoding settings                        : cabac=1 / ref=16 / deblock=1:-2:-2 / analyse=0x1:0x131 / me=umh / subme=11 / psy=1 / psy_rd=1.15:0.15 / mixed_ref=1 / me_range=24 / chroma_me=1 / trellis=2 / 8x8dct=0 / cqm=0 / deadzone=21,11 / fast_pskip=0 / chroma_qp_offset=-3 / threads=6 / lookahead_threads=1 / sliced_threads=0 / nr=15 / decimate=1 / interlaced=0 / bluray_compat=0 / constrained_intra=0 / bframes=10 / b_pyramid=2 / b_adapt=2 / b_bias=0 / direct=3 / weightb=1 / open_gop=0 / weightp=2 / keyint=240 / keyint_min=23 / scenecut=40 / intra_refresh=0 / rc_lookahead=60 / rc=2pass / mbtree=1 / bitrate=2568 / ratetol=1.0 / qcomp=0.60 / qpmin=0 / qpmax=69 / qpstep=4 / cplxblur=20.0 / qblur=0.5 / vbv_maxrate=50000 / vbv_bufsize=62500 / nal_hrd=none / ip_ratio=1.40 / aq=1:1.00
Default                                  : Yes
Forced                                   : No

Audio #1
ID                                       : 2
Format                                   : AC-3
Format/Info                              : Audio Coding 3
Mode extension                           : CM (complete main)
Format settings, Endianness              : Big
Codec ID                                 : A_AC3
Duration                                 : 3h 7mn
Bit rate mode                            : Constant
Bit rate                                 : 192 Kbps
Channel count                            : 2 channels
Channel positions                        : Front: L R
Sampling rate                            : 48.0 KHz
Bit depth                                : 16 bits
Compression mode                         : Lossy
Stream size                              : 257 MiB (6%)
Default                                  : Yes
Forced                                   : No

Audio #2
ID                                       : 3
Format                                   : AC-3
Format/Info                              : Audio Coding 3
Mode extension                           : CM (complete main)
Format settings, Endianness              : Big
Codec ID                                 : A_AC3
Duration                                 : 3h 7mn
Bit rate mode                            : Constant
Bit rate                                 : 192 Kbps
Channel count                            : 2 channels
Channel positions                        : Front: L R
Sampling rate                            : 48.0 KHz
Bit depth                                : 16 bits
Compression mode                         : Lossy
Stream size                              : 257 MiB (6%)
Default                                  : No
Forced                                   : No

Audio #3
ID                                       : 4
Format                                   : AC-3
Format/Info                              : Audio Coding 3
Mode extension                           : CM (complete main)
Format settings, Endianness              : Big
Codec ID                                 : A_AC3
Duration                                 : 3h 7mn
Bit rate mode                            : Constant
Bit rate                                 : 192 Kbps
Channel count                            : 2 channels
Channel positions                        : Front: L R
Sampling rate                            : 48.0 KHz
Bit depth                                : 16 bits
Compression mode                         : Lossy
Stream size                              : 257 MiB (6%)
Default                                  : No
Forced                                   : No

Audio #4
ID                                       : 5
Format                                   : AC-3
Format/Info                              : Audio Coding 3
Mode extension                           : CM (complete main)
Format settings, Endianness              : Big
Codec ID                                 : A_AC3
Duration                                 : 3h 7mn
Bit rate mode                            : Constant
Bit rate                                 : 192 Kbps
Channel count                            : 2 channels
Channel positions                        : Front: L R
Sampling rate                            : 48.0 KHz
Bit depth                                : 16 bits
Compression mode                         : Lossy
Stream size                              : 257 MiB (6%)
Default                                  : No
Forced                                   : No



Скачать Оно.It.(Томми.Ли.Уоллес).[1990.ужасы.триллер.драма.детектив.DVDRip-AVC].2x[AVO.(Горчаков.Живов)].+.[Dub].+.[Original.Eng].torrent без регистрации
Золото ЗОЛОТАЯ РАЗДАЧА! СКАЧАННОЕ НЕ ЗАСЧИТЫВАЕТСЯ! Золото
Дата: Зарегистрирован   [ Тип: внутренний ] Как тут cкачать?
MAGNET ссылка
MAGNET ссылка


Скачать .torrent

22 KB

Статус: проверено DHT
Скачан: торрент - 126 раз, раздача полностью - 29 раз
Размер: 4,37 GB
Оценка:  - (Голосов: 0)
Поблагодарили: 0
Поделиться ссылкой на эту раздачу с друзьями:
В контактеFacebookОдноклассникиTwitterLivejournalМой МирLiveinternet
 

 
Показать сообщения:    


Вы не можете начинать темы
Вы не можете отвечать на сообщения
Вы не можете редактировать свои сообщения
Вы не можете удалять свои сообщения
Вы не можете голосовать в опросах
Вы не можете прикреплять файлы к сообщениям
Вы можете скачивать файлы