Loading...
Error

Скачать Чернокнижник / Warlock (Стив Майнер) [1989, ужасы, триллер, BDRip-AVC] [Dub]+[MVO]x2+[AVO]x2+[Sub]x2 торрент без регистрации

 
Статистика раздачи
Размер:  2,46 GB   |    Скачан:  112 раз

Полного источника не было: 24 минуты

 
Автор Сообщение

Marsianka

[] 

Информация о фильме
Название: Чернокнижник
Оригинальное название: Warlock
Год выхода: 1989
Жанр: ужасы, триллер
Режиссер: Стив Майнер
В ролях: Джулиан Сэндс, Лори Сингер, Ричард Э. Грант, Мэри Воронов, Кевин О`Брайэн, Ричард Касс, Аллан Миллер, Анна Левайн-Томпсон, Дэвид Карпентер, Кей Катер

О фильме:
Колдун из XVII века бежит в 1988 год, чтобы избежать повешения и сожжения над корзиной с живыми кошками. Но беглеца преследует дух его заклятого врага, восставшего из могилы, чтобы покончить с нечистью, пользующейся покровительства сатанинских сил...



Страна: США
Студия: New World Pictures
Продолжительность: 01:43:13
Перевод: Дублированный, профессиональный многоголосый, авторский

Файл
Кодек: h.264
Качество: BDRip-AVC
Видео: 2250 Кбит/с, 1024x554, 23.976 кадр/с

• Аудио №1: Русский (АС3, 2 ch, 192 Кбит/с) Дублированный [Мосфильм]
• Аудио №2: Русский (АС3, 2 ch, 192 Кбит/с) Профессиональный многоголосый [ОРТ]
• Аудио №3: Английский (АС3, 2 ch, 192 Кбит/с)
Отдельно:
• Аудио №4: Русский (АС3, 2 ch, 192 Кбит/с) Авторский одноголосый [Вартан Дохалов]
• Аудио №5: Русский (АС3, 2 ch, 192 Кбит/с) Авторский одноголосый [Н.Жучков]
• Аудио №6: Украинский (АС3, 2 ch, 192 Кбит/с) Профессиональный многоголосый [Новый канал]

Субтитры: Русские, английские

Полное имя : Warlock.1989.x264.BDRip-AVC.mkv
Формат : Matroska
Версия формата : Version 2
Размер файла : 2,04 Гбайт
Продолжительность : 1 ч. 43 м.
Общий поток : 2826 Кбит/сек
Название фильма : Чернокнижник / Warlock [1989] -= BDRip (AVC) =-
Дата кодирования : UTC 2014-02-06 17:51:32
Программа кодирования : mkvmerge v6.6.0 ('The Edge Of The In Between') built on Dec 1 2013 17:55:00
Библиотека кодирования : libebml v1.3.0 + libmatroska v1.4.1

Видео
Идентификатор : 1
Формат : AVC
Формат/Информация : Advanced Video Codec
Профиль формата : High@L4.1
Параметр CABAC формата : Да
Параметр ReFrames формата : 10 кадров
Идентификатор кодека : V_MPEG4/ISO/AVC
Продолжительность : 1 ч. 43 м.
Битрейт : 2250 Кбит/сек
Ширина : 1024 пикселя
Высота : 554 пикселя
Соотношение сторон : 1,85:1
Режим частоты кадров : Постоянный
Частота кадров : 23,976 кадра/сек
Цветовое пространство : YUV
Субдискретизация насыщенности : 4:2:0
Битовая глубина : 8 бит
Тип развёртки : Прогрессивная
Бит/(Пиксели*Кадры) : 0.165
Размер потока : 1,58 Гбайт (78%)
Библиотека кодирования : x264 core 120 r2146 bcd41db
Настройки программы : cabac=1 / ref=10 / deblock=1:-3:-3 / analyse=0x3:0x113 / me=umh / subme=9 / psy=1 / psy_rd=1.00:0.00 / mixed_ref=1 / me_range=32 / chroma_me=1 / trellis=2 / 8x8dct=1 / cqm=0 / deadzone=21,11 / fast_pskip=1 / chroma_qp_offset=-2 / threads=3 / sliced_threads=0 / nr=0 / decimate=1 / interlaced=0 / bluray_compat=0 / constrained_intra=0 / bframes=8 / b_pyramid=2 / b_adapt=2 / b_bias=0 / direct=3 / weightb=1 / open_gop=0 / weightp=2 / keyint=240 / keyint_min=22 / scenecut=40 / intra_refresh=0 / rc=2pass / mbtree=0 / bitrate=2250 / ratetol=1.0 / qcomp=0.60 / qpmin=10 / qpmax=51 / qpstep=4 / cplxblur=20.0 / qblur=0.5 / ip_ratio=1.40 / pb_ratio=1.30 / aq=1:1.00
Язык : English
Default : Да
Forced : Да

Аудио #1
Идентификатор : 2
Формат : AC-3
Формат/Информация : Audio Coding 3
Расширение режима : CM (complete main)
Параметр Endianness формата : Big
Идентификатор кодека : A_AC3
Продолжительность : 1 ч. 43 м.
Вид битрейта : Постоянный
Битрейт : 192 Кбит/сек
Каналы : 2 канала
Расположение каналов : Front: L R
Частота : 48,0 КГц
Битовая глубина : 16 бит
Метод сжатия : С потерями
Размер потока : 142 Мбайт (7%)
Заголовок : Дублированный [Мосфильм] AC3 2.0 @ 192 kbps
Язык : Russian
Default : Да
Forced : Да

Аудио #2
Идентификатор : 3
Формат : AC-3
Формат/Информация : Audio Coding 3
Расширение режима : CM (complete main)
Параметр Endianness формата : Big
Идентификатор кодека : A_AC3
Продолжительность : 1 ч. 43 м.
Вид битрейта : Постоянный
Битрейт : 192 Кбит/сек
Каналы : 2 канала
Расположение каналов : Front: L R
Частота : 48,0 КГц
Битовая глубина : 16 бит
Метод сжатия : С потерями
Размер потока : 142 Мбайт (7%)
Заголовок : Многоголосый закадровый [ОРТ] AC3 2.0 @ 192 kbps
Язык : Russian
Default : Нет
Forced : Нет

Аудио #3
Идентификатор : 4
Формат : AC-3
Формат/Информация : Audio Coding 3
Расширение режима : CM (complete main)
Параметр Endianness формата : Big
Идентификатор кодека : A_AC3
Продолжительность : 1 ч. 43 м.
Вид битрейта : Постоянный
Битрейт : 192 Кбит/сек
Каналы : 2 канала
Расположение каналов : Front: L R
Частота : 48,0 КГц
Битовая глубина : 16 бит
Метод сжатия : С потерями
Размер потока : 142 Мбайт (7%)
Заголовок : AC3 2.0 @ 192 kbps
Язык : English
Default : Нет
Forced : Нет

Текст #1
Идентификатор : 5
Формат : UTF-8
Идентификатор кодека : S_TEXT/UTF8
Идентификатор кодека/Информация : UTF-8 Plain Text
Язык : Russian
Default : Нет
Forced : Нет

Текст #2
Идентификатор : 6
Формат : UTF-8
Идентификатор кодека : S_TEXT/UTF8
Идентификатор кодека/Информация : UTF-8 Plain Text
Язык : English
Default : Нет
Forced : Нет

Меню
00:00:00.000 : :Chapter 01
00:08:24.377 : :Chapter 02
00:17:57.242 : :Chapter 03
00:28:02.389 : :Chapter 04
00:35:42.390 : :Chapter 05
00:44:23.452 : :Chapter 06
00:55:50.013 : :Chapter 07
01:03:12.497 : :Chapter 08
01:11:49.013 : :Chapter 09
01:24:11.463 : :Chapter 10
01:32:18.783 : :Chapter 11
01:37:37.350 : :Chapter 12
01:43:12.561 : :Chapter 13



Скачать Чернокнижник.Warlock.(Стив.Майнер).[1989.ужасы.триллер.BDRip-AVC].[Dub]+[MVO]x2+[AVO]x2+[Sub]x2.torrent без регистрации
Золото ЗОЛОТАЯ РАЗДАЧА! СКАЧАННОЕ НЕ ЗАСЧИТЫВАЕТСЯ! Золото
Дата: Зарегистрирован   [ Тип: внутренний ] Как тут cкачать?
MAGNET ссылка
MAGNET ссылка


Скачать .torrent

26 KB

Статус: проверено DHT
Скачан: торрент - 112 раз, раздача полностью - 5 раз
Размер: 2,46 GB
Оценка:  - (Голосов: 0)
Поблагодарили: 4
Поделиться ссылкой на эту раздачу с друзьями:
В контактеFacebookОдноклассникиTwitterLivejournalМой МирLiveinternet
 

 
Показать сообщения:    


Вы не можете начинать темы
Вы не можете отвечать на сообщения
Вы не можете редактировать свои сообщения
Вы не можете удалять свои сообщения
Вы не можете голосовать в опросах
Вы не можете прикреплять файлы к сообщениям
Вы можете скачивать файлы