Loading...
Error

Скачать Бассейн / La Piscine (Жак Дере) [1969, драма, мелодрама, криминал, BDRip-AVC] [Dub]+[Sub]x2 торрент без регистрации

 
Статистика раздачи
Размер:  3,14 GB   |    Скачан:  106 раз
Сидов:  1  [  0 KB/s  ]  
 
Автор Сообщение

Marsianka

[] 

Информация о фильме
Название: Бассейн
Оригинальное название: La Piscine
Год выхода: 1969
Жанр: драма, мелодрама, криминал
Режиссер: Жак Дере
В ролях: Ален Делон, Роми Шнайдер, Морис Роне, Джейн Биркин, Поль Кроше, Тьерри Шабер, Стефани Фуган, Стив Экхардт, Мэддли Бэми, Сюзи Жаспар, Рут Прайс

О фильме: Жан-Поль и Марианна проводят отпуск на Лазурном берегу, в идеальной атмосфере на вилле друзей. Но летняя идиллия прерывается вторжением их друга, бывшего любовника Марианны. Безмятежное состояние героев сменяется обжигающим напряжением, затаенной ревностью, гнетущими намеками и страстями....



Страна: Франция, Италия
Студия: SNC, Tritone Cinematografica
Продолжительность: 02:02:23
Перевод: Дублированный

Файл
Кодек: MPEG-4 AVC
Качество: BDRip-AVC
Видео: 3000 Кбит/с, 940x576, 24.000 кадр/с

Аудио #1: Русский (AC3, 6 ch, 448 Кбит/с) / Дублированный (Мосфильм)
Аудио #2: Французский (AC3, 2 ch, 224 Кбит/с)
Субтитры: Русские, английские
Семпл
Общее
Уникальный идентификатор : 250862332087362335405015578881542361164 (0xBCBA53E605496D218C7A92DEAAE8904C)
Полное имя : D:Мои РипыBassejn.1969.x264.BDRip.AVC.MediaClub.mkv
Формат : Matroska
Версия формата : Version 4 / Version 2
Размер файла : 3,14 Гбайт
Продолжительность : 2 ч. 2 м.
Общий поток : 3675 Кбит/сек
Название фильма : = MediaClub = rip by krakatuq
Дата кодирования : UTC 2015-04-19 11:37:07
Программа кодирования : mkvmerge v6.6.0 ('The Edge Of The In Between') built on Dec 1 2013 17:55:00
Библиотека кодирования : libebml v1.3.0 + libmatroska v1.4.1

Видео
Идентификатор : 1
Формат : AVC
Формат/Информация : Advanced Video Codec
Профиль формата : High@L4.1
Параметр CABAC формата : Да
Параметр ReFrames формата : 10 кадров
Идентификатор кодека : V_MPEG4/ISO/AVC
Продолжительность : 2 ч. 2 м.
Битрейт : 3000 Кбит/сек
Ширина : 940 пикселей
Высота : 576 пикселей
Соотношение сторон : 16:10
Режим частоты кадров : Постоянный
Частота кадров : 24,000 кадра/сек
Цветовое пространство : YUV
Субдискретизация насыщенности : 4:2:0
Битовая глубина : 8 бит
Тип развёртки : Прогрессивная
Бит/(Пиксели*Кадры) : 0.231
Размер потока : 2,50 Гбайт (80%)
Заголовок : Bassejn.1969.x264.BDRip.AVC.MediaClub
Библиотека кодирования : x264 core 142 r2409+42 04be48a tMod [8-bit@4:2:0 X86]
Настройки программы : cabac=1 / ref=10 / deblock=1:-3:-3 / analyse=0x3:0x133 / me=umh / subme=11 / psy=1 / fade_compensate=0.00 / psy_rd=1.00:0.15 / mixed_ref=1 / me_range=32 / chroma_me=1 / trellis=2 / 8x8dct=1 / cqm=0 / deadzone=21,11 / fast_pskip=0 / chroma_qp_offset=-3 / threads=3 / lookahead_threads=1 / sliced_threads=0 / nr=0 / decimate=0 / interlaced=0 / bluray_compat=0 / constrained_intra=0 / fgo=0 / bframes=9 / b_pyramid=2 / b_adapt=2 / b_bias=0 / direct=3 / weightb=1 / open_gop=0 / weightp=2 / keyint=240 / keyint_min=23 / scenecut=40 / intra_refresh=0 / rc=2pass / mbtree=0 / bitrate=3000 / ratetol=1.0 / qcomp=0.60 / qpmin=0:0:0 / qpmax=69:69:69 / qpstep=4 / cplxblur=20.0 / qblur=0.5 / ip_ratio=1.40 / pb_ratio=1.30 / aq=1:1.00 / aq-sensitivity=10.00 / aq-factor=1.00:1.00:1.00 / aq2=0 / aq3=0
Язык : French
Default : Да
Forced : Нет

Аудио #1
Идентификатор : 2
Формат : AC-3
Формат/Информация : Audio Coding 3
Расширение режима : CM (complete main)
Параметр Endianness формата : Big
Идентификатор кодека : A_AC3
Продолжительность : 2 ч. 2 м.
Вид битрейта : Постоянный
Битрейт : 448 Кбит/сек
Каналы : 6 каналов
Расположение каналов : Front: L C R, Side: L R, LFE
Частота : 48,0 КГц
Битовая глубина : 16 бит
Метод сжатия : С потерями
Размер потока : 392 Мбайт (12%)
Заголовок : TRACK_01_DUB_RUS
Язык : Russian
Default : Да
Forced : Да

Аудио #2
Идентификатор : 3
Формат : AC-3
Формат/Информация : Audio Coding 3
Расширение режима : CM (complete main)
Параметр Endianness формата : Big
Идентификатор кодека : A_AC3
Продолжительность : 2 ч. 2 м.
Вид битрейта : Постоянный
Битрейт : 224 Кбит/сек
Каналы : 2 канала
Расположение каналов : Front: L R
Частота : 48,0 КГц
Битовая глубина : 16 бит
Метод сжатия : С потерями
Размер потока : 196 Мбайт (6%)
Заголовок : TRACK_02_ORIGINAL_FRE
Язык : French
Default : Нет
Forced : Нет

Текст #1
Идентификатор : 4
Формат : UTF-8
Идентификатор кодека : S_TEXT/UTF8
Идентификатор кодека/Информация : UTF-8 Plain Text
Заголовок : TEXT_01_SUB_RUS
Язык : Russian
Default : Нет
Forced : Нет

Текст #2
Идентификатор : 5
Формат : UTF-8
Идентификатор кодека : S_TEXT/UTF8
Идентификатор кодека/Информация : UTF-8 Plain Text
Заголовок : TEXT_02_SUB_ENG
Язык : English
Default : Нет
Forced : Нет

Меню
00:00:00.000 : en:00:00:00.000
00:09:09.667 : en:00:09:09.667
00:19:30.417 : en:00:19:30.417
00:28:24.125 : en:00:28:24.125
00:36:32.875 : en:00:36:32.875
00:47:29.458 : en:00:47:29.458
00:55:23.542 : en:00:55:23.542
01:05:27.750 : en:01:05:27.750
01:13:59.792 : en:01:13:59.792
01:26:03.833 : en:01:26:03.833
01:39:58.375 : en:01:39:58.375
01:49:55.917 : en:01:49:55.917

x264 log
x264 [info]: frame I:892 Avg QP:16.57 size: 87763
x264 [info]: frame P:39221 Avg QP:19.44 size: 33826
x264 [info]: frame B:136125 Avg QP:20.51 size: 9913
Релиз от: | Автор рипа:



Скачать Бассейн.La.Piscine.(Жак.Дере).[1969.драма.мелодрама.криминал.BDRip-AVC].[Dub]+[Sub]x2.torrent без регистрации
Золото ЗОЛОТАЯ РАЗДАЧА! СКАЧАННОЕ НЕ ЗАСЧИТЫВАЕТСЯ! Золото
Дата: Зарегистрирован   [ Тип: внутренний ] Как тут cкачать?
MAGNET ссылка
MAGNET ссылка


Скачать .torrent

16 KB

Статус: проверено DHT
Скачан: торрент - 106 раз, раздача полностью - 12 раз
Размер: 3,14 GB
Оценка:  - (Голосов: 0)
Поблагодарили: 1
Поделиться ссылкой на эту раздачу с друзьями:
В контактеFacebookОдноклассникиTwitterLivejournalМой МирLiveinternet
 

 
Показать сообщения:    


Вы не можете начинать темы
Вы не можете отвечать на сообщения
Вы не можете редактировать свои сообщения
Вы не можете удалять свои сообщения
Вы не можете голосовать в опросах
Вы не можете прикреплять файлы к сообщениям
Вы можете скачивать файлы