Loading...
Error

Скачать Страшные сказки / Penny Dreadful (Сезон 02, серия 01-02 из 10) (Хуан Антонио Байона, Коки Гидройч, Джеймс Хоуз) [2015, Ужасы, триллер, HDTVRip-AVC] [Sub] (Rus) торрент без регистрации

 
Статистика раздачи
Размер:  577 MB   |    Скачан:  2095 раз
Сидов:  1  [  0 KB/s  ]  
 
Автор Сообщение

leon030982

[] 



Страшные Сказки


Информация о фильме:
Год выхода: 2015
Страна: США, Ирландия, Великобритания
Жанр: ужасы, драма
Продолжительность: ~ 00:55:00 серия
Перевод: Русские субтитры ![NotaBenoid]
оригинальная дорожка: английский

Режиссер: Хуан Антонио Байона, Коки Гидройч, Джеймс Хоуз
В ролях: Тимоти Далтон, Ева Грин, Джош Хартнетт, Рори Киннер, Хелен МакКрори, Билли Пайпер, Гарри Тредэвэй, Рив Карни, Алан Армстронг, Рик Берн

Описание фильма:
Сериал возвращает нас ко всеми любимым героям, монстрам и злодеям. В викторианском Лондоне, где происходит действие сериала, никогда не было спокойно и безопасно. Особенно теперь, когда литературные персонажи ожили и наводят ужас на город. Неминуема встреча с вечно молодым Дорианом Греем, героем одноименного романа Оскара Уайльда, доктором Франкенштейном и его зомби-монстром, хладнокровным графом Дракулой, охотником на вампиров и оборотней Ван Хельсингом и множеством других уникальных персонажей.



Информация о файле:
Качество: HDTVRip-AVC
Формат: MKV
Видео кодек:AVC
Аудио кодек: AAC
Видео: MPEG4-AVC, 720x404 (1.80:1), 23.976 fps, ~742 kbps avg, 0.092 bit/pixel
Аудио Eng: 48 kHz, AAC, 2 ch, ~140.00 kbps avg

Добавлена 2-я серия!

Цитата:

Субтитры НотаБеноид, владелец: aivovo

Код:

General
Complete name                    : E:\Penny Dreadful.S02.HDTVRip-AVC.[SUB]\Penny_Dreadful_S02E01_-_Fresh_Hell
Format                           : MPEG-4
Format profile                   : Base Media
Codec ID                         : isom
File size                        : 306 MiB
Duration                         : 54mn 49s
Overall bit rate                 : 879 Kbps
Encoded date                     : UTC 2011-09-08 11:43:25
Tagged date                      : UTC 2011-09-08 11:43:25

Video
ID                               : 1
Format                           : AVC
Format/Info                      : Advanced Video Codec
Format profile                   : High@L3.1
Format settings, CABAC           : Yes
Format settings, ReFrames        : 5 frames
Format settings, GOP             : M=4, N=9
Codec ID                         : avc1
Codec ID/Info                    : Advanced Video Coding
Duration                         : 54mn 49s
Bit rate mode                    : Variable
Bit rate                         : 742 Kbps
Width                            : 720 pixels
Height                           : 404 pixels
Display aspect ratio             : 16:9
Frame rate mode                  : Constant
Frame rate                       : 23.976 fps
Color space                      : YUV
Chroma subsampling               : 4:2:0
Bit depth                        : 8 bits
Scan type                        : Progressive
Bits/(Pixel*Frame)               : 0.092
Stream size                      : 252 MiB (82%)
Writing library                  : x264 core 146 r2538 121396c
Encoding settings                : cabac=1 / ref=5 / deblock=1:0:0 / analyse=0x3:0x113 / me=umh / subme=8 / psy=1 / psy_rd=1.00:0.00 / mixed_ref=1 / me_range=16 / chroma_me=1 / trellis=1 / 8x8dct=1 / cqm=0 / deadzone=21,11 / fast_pskip=1 / chroma_qp_offset=-2 / threads=24 / lookahead_threads=3 / sliced_threads=0 / nr=0 / decimate=1 / interlaced=0 / bluray_compat=0 / constrained_intra=0 / bframes=3 / b_pyramid=2 / b_adapt=2 / b_bias=0 / direct=3 / weightb=1 / open_gop=0 / weightp=2 / keyint=250 / keyint_min=23 / scenecut=40 / intra_refresh=0 / rc_lookahead=50 / rc=crf / mbtree=1 / crf=19.0 / qcomp=0.60 / qpmin=0 / qpmax=69 / qpstep=4 / ip_ratio=1.40 / aq=1:1.00
Encoded date                     : UTC 2011-09-08 11:43:25
Tagged date                      : UTC 2011-09-08 11:43:25
Matrix coefficients              : BT.709-5, BT.1361, IEC 61966-2-4 709, SMPTE RP177

Audio
ID                               : 2
Format                           : AAC
Format/Info                      : Advanced Audio Codec
Format profile                   : LC
Codec ID                         : 40
Duration                         : 54mn 49s
Bit rate mode                    : Variable
Bit rate                         : 132.3 Kbps
Maximum bit rate                 : 183 Kbps
Channel(s)                       : 2 channels
Channel positions                : Front: L R
Sampling rate                    : 48.0 KHz
Compression mode                 : Lossy
Stream size                      : 51.6 MiB (17%)
Encoded date                     : UTC 2011-09-08 11:43:25
Tagged date                      : UTC 2011-09-08 11:43:25

Когда раздача ведётся путём добавления новых серий, при каждом добавлении создётся новый торрент. Чтобы начать докачку новой серии, пользователям необходимо сделать следующее:
(1) остановить скачивание,
(2) удалить старый торрент у себя из клиента (старые серии удалять не надо),
(3) скачать новый торрент и запустить его у себя в клиенте вместо старого, при этом указать клиенту путь в старую папку, куда и должно происходить скачивание новых серий.
Ваш клиент при этом должен произвести хеширование (проверку) старой папки (если не производит сам - помогите ему сделать это), и будет докачивать только те серии, которых у вас ещё нет. Старые серии при этом не удаляются, а продолжают раздаваться!
Eсли вы уже удалили старые серии, то предотвратить повторную закачку старых серий можно, отжав галочку в соответсвующих местах при запуске нового торрента. По возможности, желательно не удалять старые серии как можно дольше, чтобы релизёр не столько продолжал раздавать старые серии, а смог сконцентрироваться на новых.






Скачать Страшные.сказки.Penny.Dreadful.(Сезон.02.серия.01-02.из.10).(Хуан.Антонио.Байона.Коки.Гидройч.Джеймс.Хоуз).[2015.Ужасы.триллер.HDTVRip-AVC].[Sub].(Rus).torrent без регистрации
Золото ЗОЛОТАЯ РАЗДАЧА! СКАЧАННОЕ НЕ ЗАСЧИТЫВАЕТСЯ! Золото
Дата: Зарегистрирован   [ Тип: внутренний ] Как тут cкачать?
MAGNET ссылка
MAGNET ссылка


Скачать .torrent

12 KB

Статус: проверено DHT
Скачан: торрент - 2095 раз, раздача полностью - 0 раз
Размер: 577 MB
Оценка:  5 (Голосов: 1)
Поблагодарили: 0
Поделиться ссылкой на эту раздачу с друзьями:
В контактеFacebookОдноклассникиTwitterLivejournalМой МирLiveinternet
 

 
Показать сообщения:    


Вы не можете начинать темы
Вы не можете отвечать на сообщения
Вы не можете редактировать свои сообщения
Вы не можете удалять свои сообщения
Вы не можете голосовать в опросах
Вы не можете прикреплять файлы к сообщениям
Вы можете скачивать файлы