Loading...
Error

Скачать Посланники / The Messengers (сезон 01) (Дуан Кларк и др.) [2015, фантастика, HDTVRip] [MVO (IDEAFILM)] торрент без регистрации

 
Статистика раздачи
Размер:  6,69 GB   |    Скачан:  125 раз
Сидов:  1  [  0 KB/s  ]  
 
Автор Сообщение

МихаНЕзатор

[] 

Посланники / The Messengers


Год выпуска: 2015
Страна: США
Жанр: фантастика, драма
Продолжительность: ~42 мин.
Перевод: Профессиональный (многоголосый закадровый) IDEAFILM (4 голоса)
Режиссёр: Дуан Кларк, Гай Норман Би, Джеймс Л. Конуэй

В ролях: Шантель Ван Сантен, София Блэк-Д’Элиа, Джоэл Кортни, Дж.Д. Пардо, Джон Флетчер, Анна Диоп, Диого Моргадо, Уэйлон Брэйди, Madison Dellamea, Бриттани О’Грэйди и другие

Описание: Когда таинственный объект падает на Землю, несколько незнакомцев умирают от энергетического импульса — но затем просыпаются и узнают, что ответственны за предотвращение грядущего Апокалипсиса.



Качество: WEB-DLRip
Формат: AVI
Видео: DivX, 1490 Кбит/сек, 720x400 (16х9), 23.976 кадр/сек, 0.216 б/п
Аудио: 48 kHz, AC-3, 6 ch (Front: L C R, Side: L R, LFE), ~448 kbps
Субтитры: отсутствуют

АНОНСЫ ПОПУЛЯРНЫХ РАЗДАЧ


Торрент обновлён, заменён перевод, добавлена 13-я серия!
1. Awakening
2. Strange Magic
3. Path to Paradise
4. Drums of War
5. Eye in the Sky
6. Metamorphosis
7. Deus Ex Machina
8. A House Divided
9. Death Becomes Her
10. Why We Fight
11. Harvest
12. Spark of Hope
13. Houston, We Have a Problem
Общее
Полное имя : D:\The Messengers. Season 1 (2015) WEB-DLRip [Ideafilm]\The Messengers S01E01 (2015) WEB-DLRip [Ideafilm].avi
Формат : AVI
Формат/Информация : Audio Video Interleave
Размер файла : 582 Мбайт
Продолжительность : 41 м.
Общий поток : 1947 Кбит/сек
Программа кодирования : VirtualDubMod 1.5.10.3 | www.virtualdub-fr.org || (build 2550/release)
Библиотека кодирования : VirtualDubMod build 2550/release
Видео
Идентификатор : 0
Формат : MPEG-4 Visual
Профиль формата : Advanced Simple@L5
Параметр BVOP формата : 1
Параметр QPel формата : Нет
Параметр GMC формата : Без точки перехода
Параметр матрицы формата : Default (H.263)
Идентификатор кодека : DX50
Идентификатор кодека/Подсказка : DivX 5
Продолжительность : 41 м.
Битрейт : 1490 Кбит/сек
Ширина : 720 пикселей
Высота : 400 пикселей
Соотношение сторон : 16:9
Частота кадров : 23,976 кадра/сек
Цветовое пространство : YUV
Субдискретизация насыщенности : 4:2:0
Битовая глубина : 8 бит
Тип развёртки : Прогрессивная
Бит/(Пиксели*Кадры) : 0.216
Размер потока : 445 Мбайт (77%)
Библиотека кодирования : XviD 73
Аудио
Идентификатор : 1
Формат : AC-3
Формат/Информация : Audio Coding 3
Расширение режима : CM (complete main)
Параметр Endianness формата : Big
Идентификатор кодека : 2000
Продолжительность : 41 м.
Вид битрейта : Постоянный
Битрейт : 448 Кбит/сек
Каналы : 6 каналов
Расположение каналов : Front: L C R, Side: L R, LFE
Частота : 48,0 КГц
Битовая глубина : 16 бит
Метод сжатия : С потерями
Размер потока : 134 Мбайт (23%)
Выравнивание : Разделение по промежуткам
Продолжительность промежутка : 42 мс. (1,00 видеокадр)
Время предзагрузки промежутка : 500 мс.



Скачать Посланники.The.Messengers.(сезон.01).(Дуан.Кларк.и.др.).[2015.фантастика.HDTVRip].[MVO.(IDEAFILM)].torrent без регистрации
Золото ЗОЛОТАЯ РАЗДАЧА! СКАЧАННОЕ НЕ ЗАСЧИТЫВАЕТСЯ! Золото
Дата: Зарегистрирован   [ Тип: внутренний ] Как тут cкачать?
MAGNET ссылка
MAGNET ссылка


Скачать .torrent

19 KB

Статус: проверено DHT
Скачан: торрент - 125 раз, раздача полностью - 45 раз
Размер: 6,69 GB
Оценка:  - (Голосов: 0)
Поблагодарили: 0
Поделиться ссылкой на эту раздачу с друзьями:
В контактеFacebookОдноклассникиTwitterLivejournalМой МирLiveinternet
 

 
Показать сообщения:    


Вы не можете начинать темы
Вы не можете отвечать на сообщения
Вы не можете редактировать свои сообщения
Вы не можете удалять свои сообщения
Вы не можете голосовать в опросах
Вы не можете прикреплять файлы к сообщениям
Вы можете скачивать файлы