Loading...
Error

Скачать Дурдом на колесах / RV (Бэрри Зонненфельд) [2006, комедия, приключения, семейный, BDRip-AVC] [MVO]+[AVO]+[VO]+[Оригинал]+[Sub] торрент без регистрации

 
Статистика раздачи
Размер:  2,76 GB   |    Скачан:  104 раза
Сидов:  1  [  0 KB/s  ]  
 
Автор Сообщение

Marsianka

[] 

Информация о фильме
Название: Дурдом на колесах
Оригинальное название: RV
Год выхода: 2006
Жанр: комедия, приключения, семейный
Режиссер: Бэрри Зонненфельд
В ролях: Робин Уильямс, Шерил Хайнс, Джош Хатчерсон, Джоанна «ДжоДжо» Левески, Джефф Дэниелс, Кристин Ченоуэт, Хантер Пэрриш, Хлоя Сонненфельд, Алекс Феррис, Уилл Арнетт, Тони Хейл, Брайан Хау, Ричард Йен Кокс, Эрика-Шэй Гэйр

О фильме:
Трудоголик Боб Мунро, его жена Джейми, их 15-летняя дочь Касси и 12-летний сын Карл определённо нуждаются в том, чтобы проводить больше времени вместе. Дав обещание отправиться всей семьей на отдых на Гавайи, Боб внезапно меняет планы, не ставя остальных в известность об этом. И вместо недели в тропическом раю они направляются в дорожное путешествие в Колорадо в специально приспособленном для таких поездок трейлере (кратко именуемом RV). Однако, продуманный план Боба по воссоединению семьи, затащивший сопротивляющихся и негодующих жену и детей в RV, моментально даёт трещину. Бездарные попытки Боба управлять огромным неповоротливым трейлером встречают молчаливое пренебрежение со стороны его семьи. Жизнь в RV разительно отличается от их комфортабельной жизни в Лос-Анджелесе, и каждая попытка Боба принести атмосферу отдыха и уюта угрожает ещё больше разъединить их. Достигнув лагеря отдыха, Мунро знакомятся с семьёй Горнике, которые, к их немалому раздражению, испытывают немалое удовольствие от беззаботных постоянных странствий в RV. Чем больше они стараются избежать любого контакта с ними, тем больше их пути пересекаются. Но череда бедствий неожиданно способствует объединению даже самых отдалившихся друг от друга членов семьи, и каждый неудачный опыт невольно помогает им снова найти друг друга и стать полноценной семьёй.



Страна: США, Германия
Студия: Великобритания, Intermedia Films
Продолжительность: 01:38:48
Перевод: Профессиональный многоголосый, авторский, любительский одноголосый

Файл
Кодек: MPEG-4 AVC
Качество: BDRip-AVC
Видео: 2528 Кбит/с, 1024x424, 23.976 кадр/с
Русский (AC3, 2 ch, 192 Кбит/с), (AC3, 6 ch, 384 Кбит/с), (AC3, 6 ch, 448 Кбит/с), английский (AC3, 6 ch, 448 Кбит/с)
Субтитры: Английские
Рип от StarbirS

Аудио#1: Russian: 48 kHz, AC3, 3/2 (L,C,R,l,r) + LFE ch, ~448.00 kbps avg - Профессиональный многоголосый (BD EUR)
Аудио#2: Russian: 48 kHz, AC3, 3/2 (L,C,R,l,r) + LFE ch, ~384.00 kbps avg - Любительский одноголосый
Aудио#3: Russian: 48 kHz, AC3, 2 (L,R) + LFE ch, ~192.00 kbps avg - Авторский одноголосый (Е.Гранкин)
Аудио#4: English: 48 kHz, AC3, 3/2 (L,C,R,l,r) + LFE ch, ~448.00 kbps avg - Оригинал

Субтитры: Английские

x264 [info]: frame I:1443 Avg QP:18.22 size: 81323
x264 [info]: frame P:30331 Avg QP:21.01 size: 26999
x264 [info]: frame B:110354 Avg QP:22.95 size: 8469

За работу над дорожкой Е. Гранкина спасибо filevadim
Формат : Matroska
Версия формата : Version 2
Размер файла : 2,76 Гбайт
Продолжительность : 1 ч. 38 м.
Общий поток : 3996 Кбит/сек
Название фильма : Durdom.na.kolesah.RV.2006.x264.BDRip.(AVC)
Дата кодирования : UTC 2015-04-22 06:21:10
Программа кодирования : mkvmerge v7.7.0 ('Six Voices') 64bit built on Feb 28 2015 23:39:33
Библиотека кодирования : libebml v1.3.1 + libmatroska v1.4.2

Видео
Идентификатор : 1
Формат : AVC
Формат/Информация : Advanced Video Codec
Профиль формата : High@L4.1
Параметр CABAC формата : Да
Параметр ReFrames формата : 9 кадров
Идентификатор кодека : V_MPEG4/ISO/AVC
Продолжительность : 1 ч. 38 м.
Битрейт : 2528 Кбит/сек
Ширина : 1024 пикселя
Высота : 424 пикселя
Соотношение сторон : 2,40:1
Режим частоты кадров : Постоянный
Частота кадров : 23,976 кадра/сек
Цветовое пространство : YUV
Субдискретизация насыщенности : 4:2:0
Битовая глубина : 8 бит
Тип развёртки : Прогрессивная
Бит/(Пиксели*Кадры) : 0.243
Размер потока : 1,69 Гбайт (61%)
Заголовок : Durdom.na.kolesah.RV.2006.x264.BDRip.(AVC).by.StarbirS
Библиотека кодирования : x264 core 146 r2538 121396c
Настройки программы : cabac=1 / ref=9 / deblock=1:-3:-3 / analyse=0x3:0x133 / me=umh / subme=10 / psy=1 / psy_rd=1.05:0.15 / mixed_ref=1 / me_range=32 / chroma_me=1 / trellis=2 / 8x8dct=1 / cqm=0 / deadzone=21,11 / fast_pskip=0 / chroma_qp_offset=-3 / threads=12 / lookahead_threads=2 / sliced_threads=0 / nr=0 / decimate=0 / interlaced=0 / bluray_compat=0 / constrained_intra=0 / bframes=8 / b_pyramid=2 / b_adapt=2 / b_bias=0 / direct=3 / weightb=1 / open_gop=1 / weightp=2 / keyint=240 / keyint_min=23 / scenecut=40 / intra_refresh=0 / rc=2pass / mbtree=0 / bitrate=2528 / ratetol=1.0 / qcomp=0.65 / qpmin=0 / qpmax=69 / qpstep=4 / cplxblur=20.0 / qblur=0.5 / ip_ratio=1.40 / pb_ratio=1.30 / aq=1:0.90
Язык : English
Default : Да
Forced : Нет

Аудио #1
Идентификатор : 2
Формат : AC-3
Формат/Информация : Audio Coding 3
Расширение режима : CM (complete main)
Параметр Endianness формата : Big
Идентификатор кодека : A_AC3
Продолжительность : 1 ч. 38 м.
Вид битрейта : Постоянный
Битрейт : 448 Кбит/сек
Каналы : 6 каналов
Расположение каналов : Front: L C R, Side: L R, LFE
Частота : 48,0 КГц
Битовая глубина : 16 бит
Метод сжатия : С потерями
Размер потока : 317 Мбайт (11%)
Заголовок : Профессиональный многоголосый (BD EUR)
Язык : Russian
Default : Да
Forced : Нет

Аудио #2
Идентификатор : 3
Формат : AC-3
Формат/Информация : Audio Coding 3
Расширение режима : CM (complete main)
Параметр Endianness формата : Big
Идентификатор кодека : A_AC3
Продолжительность : 1 ч. 38 м.
Вид битрейта : Постоянный
Битрейт : 384 Кбит/сек
Каналы : 6 каналов
Расположение каналов : Front: L C R, Side: L R, LFE
Частота : 48,0 КГц
Битовая глубина : 16 бит
Метод сжатия : С потерями
Размер потока : 271 Мбайт (10%)
Заголовок : Любительский одноголосый
Язык : Russian
Default : Нет
Forced : Нет

Аудио #3
Идентификатор : 4
Формат : AC-3
Формат/Информация : Audio Coding 3
Расширение режима : CM (complete main)
Параметр Endianness формата : Big
Идентификатор кодека : A_AC3
Продолжительность : 1 ч. 38 м.
Вид битрейта : Постоянный
Битрейт : 192 Кбит/сек
Каналы : 2 канала
Расположение каналов : Front: L R
Частота : 48,0 КГц
Битовая глубина : 16 бит
Метод сжатия : С потерями
Размер потока : 136 Мбайт (5%)
Заголовок : Авторский одноголосый (Е.Гранкин)
Язык : Russian
Default : Нет
Forced : Нет

Аудио #4
Идентификатор : 5
Формат : AC-3
Формат/Информация : Audio Coding 3
Расширение режима : CM (complete main)
Параметр Endianness формата : Big
Идентификатор кодека : A_AC3
Продолжительность : 1 ч. 38 м.
Вид битрейта : Постоянный
Битрейт : 448 Кбит/сек
Каналы : 6 каналов
Расположение каналов : Front: L C R, Side: L R, LFE
Частота : 48,0 КГц
Битовая глубина : 16 бит
Метод сжатия : С потерями
Размер потока : 317 Мбайт (11%)
Язык : English
Default : Нет
Forced : Нет

Текст
Идентификатор : 6
Формат : UTF-8
Идентификатор кодека : S_TEXT/UTF8
Идентификатор кодека/Информация : UTF-8 Plain Text
Язык : English
Default : Да
Forced : Нет

Меню
00:00:00.000 : en:00:00:00.000
00:05:44.761 : en:00:05:44.761
00:14:46.636 : en:00:14:46.636
00:18:43.664 : en:00:18:43.664
00:27:53.463 : en:00:27:53.463
00:35:44.976 : en:00:35:44.976
00:38:26.846 : en:00:38:26.846
00:43:55.091 : en:00:43:55.091
00:49:03.107 : en:00:49:03.107
00:53:32.418 : en:00:53:32.418
01:01:41.323 : en:01:01:41.323
01:07:17.158 : en:01:07:17.158
01:12:48.990 : en:01:12:48.990
01:18:35.252 : en:01:18:35.252
01:24:50.794 : en:01:24:50.794
01:29:51.970 : en:01:29:51.970



Скачать Дурдом.на.колесах.RV.(Бэрри.Зонненфельд).[2006.комедия.приключения.семейный.BDRip-AVC].[MVO]+[AVO]+[VO]+[Оригинал]+[Sub].torrent без регистрации
Золото ЗОЛОТАЯ РАЗДАЧА! СКАЧАННОЕ НЕ ЗАСЧИТЫВАЕТСЯ! Золото
Дата: Зарегистрирован   [ Тип: внутренний ] Как тут cкачать?
MAGNET ссылка
MAGNET ссылка


Скачать .torrent

14 KB

Статус: проверено DHT
Скачан: торрент - 104 раз, раздача полностью - 23 раз
Размер: 2,76 GB
Оценка:  - (Голосов: 0)
Поблагодарили: 2
Поделиться ссылкой на эту раздачу с друзьями:
В контактеFacebookОдноклассникиTwitterLivejournalМой МирLiveinternet
 

 
Показать сообщения:    


Вы не можете начинать темы
Вы не можете отвечать на сообщения
Вы не можете редактировать свои сообщения
Вы не можете удалять свои сообщения
Вы не можете голосовать в опросах
Вы не можете прикреплять файлы к сообщениям
Вы можете скачивать файлы