Loading...
Error

Скачать Страшные сказки / Penny Dreadful (сезоны 01-03) (Хуан Антонио Байона и др.) [2014-2015, ужасы, триллер, HDTVRip, WEBRip] [MVO (AlexFilm)]+[Eng] торрент без регистрации

 
Статистика раздачи
Размер:  16,93 GB   |    Скачан:  2075 раз
Сидов:  1  [  0 KB/s  ]  
 
Автор Сообщение

МихаНЕзатор

[] 

Информация о фильме
Название: Страшные сказки
Оригинальное название: Penny Dreadful
Год выхода: 2014
Жанр: Ужасы, триллер, вампиры
Режиссер: Хуан Антонио Байона, Дирбла Уолш, Сэм Мендес

В ролях: Тимоти Далтон, Ева Грин, Джош Хартнетт, Рори Киннер, Хелен МакКрори, Билли Пайпер, Гарри Тредэвэй, Рив Карни, Алан Армстронг, Рик Берн, Джейд Юрелл

О фильме: Сериал возвращает нас к всеми любимым героям, монстрам и злодеям. В викторианском Лондоне, где происходит действие сериала, никогда не было спокойно и безопасно. Особенно теперь, когда литературные персонажи ожили и наводят ужас на город. Неминуема встреча с вечно молодым Дорианом Греем, героем одноименного романа Оскара Уальда, доктором Франкенштейном и его зомби-монстром, хладнокровным графом Дракулой, охотником на вампиров и оборотней Ван Хельсингом и множеством других уникальных персонажей.

Релиз от:

Страна: США, Ирландия, Великобритания
Студия: Desert Wolf Productions, Neal Street Productions
Продолжительность: 18 x ~ 00:53:00
Перевод: Профессиональный (многоголосый, закадровый) [AlexFilm]

Файл
Формат: AVI
Качество: HDRip, WEB-DLRip
Видео: XviD, ~ 1700 Кбит/с, 720x400
Аудио: Русский, английский (MP3, 2 ch, 192 Кбит/с)
Субтитры: Нет

АНОНСЫ ПОПУЛЯРНЫХ РАЗДАЧ


Торрент обновлён, добавлен 3-й сезон!

Сезон 1
01. Ночная работа / Night Work
02. Спиритический сеанс / Séance
03. Воскрешение / Resurrection
04. Полусвет / Demimonde
05. Больше, чем сёстры / Closer Than Sisters
06. То, что смерть соединила / What Death Can Join Together
07. Одержимость / Possession
08. Гран Гиньоль / Grand Guignol

Сезон 2

01. Сущий ад (Fresh Hell)
02. Язык Дьявола (Verbis Diablo)
03. Приходящие в ночи (The Nightcomers)
04. Духи злобы поднебесной (Evil Spirits in Heavenly Places)
05. Вверху — лишь купол синий (Above the Vaulted Sky)
06. Великие ужасы (Glorious Horrors)
07. Маленький скорпион (Little Scorpion)
08. Помни о смерти (Memento Mori)
09. Мой единственный враг — сам Ад (And Hell Itself My Only Foe)
10. И стали они врагами (And They Were Enemies)

Сезон 3

01. День, когда Теннисон умер / The Day Tennyson Died
02. Злодеи повсюду / Predators Far and Near
03. И да переплетётся добро и зло / Good and Evil Braided Be
04. Травяное лезвие (Травинка) / A Blade of Grass
05. Этот мир - наш ад / This World Is Our Hell
06. Нет более жестокого зверя / No Beast So Fierce
07. Отлив / Ebb Tide
08. Бесконечная ночь / Perpetual Night
09. Блаженная тьма / The Blessed Dark
Complete name : E:KinoStrashnye.Skazki.XviD.GFStrashnye.Skazki.S01.2014.XviD.HDRip.AF.GFStrashnye.Skazki.s01e01.2014.XviD.HDRip.AF.GF.avi
Format : AVI
Format/Info : Audio Video Interleave
File size : 819 MiB
Duration : 53mn 1s
Overall bit rate : 2 160 Kbps
Writing application : VirtualDubMod 1.5.10.3 | www.virtualdub-fr.org || (build 2550/release)
Writing library : VirtualDubMod build 2550/release

Video
ID : 0
Format : MPEG-4 Visual
Format profile : Advanced Simple@L5
Format settings, BVOP : 2
Format settings, QPel : No
Format settings, GMC : No warppoints
Format settings, Matrix : Default (H.263)
Codec ID : XVID
Codec ID/Hint : XviD
Duration : 53mn 1s
Bit rate : 1 959 Kbps
Width : 720 pixels
Height : 400 pixels
Display aspect ratio : 16:9
Frame rate : 23.976 fps
Color space : YUV
Chroma subsampling : 4:2:0
Bit depth : 8 bits
Scan type : Progressive
Compression mode : Lossy
Bits/(Pixel*Frame) : 0.284
Stream size : 743 MiB (91%)
Writing library : XviD 1.2.1 (UTC 2008-12-04)

Audio
ID : 1
Format : AC-3
Format/Info : Audio Coding 3
Mode extension : CM (complete main)
Format settings, Endianness : Big
Codec ID : 2000
Duration : 53mn 1s
Bit rate mode : Constant
Bit rate : 192 Kbps
Channel(s) : 6 channels
Channel positions : Front: L C R, Side: L R, LFE
Sampling rate : 48.0 KHz
Compression mode : Lossy
Stream size : 72.8 MiB (9%)
Alignment : Split accross interleaves
Interleave, duration : 42 ms (1.00 video frame)
Interleave, preload duratio : 500 ms



Скачать Страшные.сказки.Penny.Dreadful.(сезоны.01-03).(Хуан.Антонио.Байона.и.др.).[2014-2015.ужасы.триллер.HDTVRip.WEBRip].[MVO.(AlexFilm)]+[Eng].torrent без регистрации
Золото ЗОЛОТАЯ РАЗДАЧА! СКАЧАННОЕ НЕ ЗАСЧИТЫВАЕТСЯ! Золото
Дата: Зарегистрирован   [ Тип: внутренний ] Как тут cкачать?
MAGNET ссылка
MAGNET ссылка


Скачать .torrent

88 KB

Статус: проверено DHT
Скачан: торрент - 2075 раз, раздача полностью - 30 раз
Размер: 16,93 GB
Оценка:  5 (Голосов: 1)
Поблагодарили: 2
Поделиться ссылкой на эту раздачу с друзьями:
В контактеFacebookОдноклассникиTwitterLivejournalМой МирLiveinternet
 

 
Показать сообщения:    


Вы не можете начинать темы
Вы не можете отвечать на сообщения
Вы не можете редактировать свои сообщения
Вы не можете удалять свои сообщения
Вы не можете голосовать в опросах
Вы не можете прикреплять файлы к сообщениям
Вы можете скачивать файлы