Loading...
Error

Скачать Путешествие Фелиции / Felicia's Journey (Атом Эгоян) [1999, триллер, драма, DVDRip-AVC] [MVO] торрент без регистрации

 
Статистика раздачи
Размер:  1,47 GB   |    Скачан:  104 раза
Сидов:  1  [  0 KB/s  ]  
 
Автор Сообщение

Marsianka

[] 

Информация о фильме
Название: Путешествие Фелиции
Оригинальное название: Felicia's Journey
Год выхода: 1999
Жанр: триллер, драма
Режиссер: Атом Эгоян / Atom Egoyan
В ролях: Боб Хоскинс, Арсинэ Ханджян, Элейн Кэссиди, Шила Рид, Низвар Каранж, Али Ясин, Питер МакДональд, Крисс Досанж, Джерард МакСорли, Мари Стэффорд

О фильме:
Семнадцатилетняя Фелиция, зная только название города, отправляется на поиски своего жениха, чтобы сообщить ему о своей беременности. В большом городе она знакомится с Джозефом Хилдичем.
Холостяк средних лет, Джозеф каждый вечер готовит себе ужин по рецептам телеповара. Он с радостью соглашается помочь девушке. Но вскоре Фелиция начинает понимать, что эта помощь далеко не бескорыстна и ей грозит опасность…


Страна: Канада, Великобритания
Студия: Alliance Atlantis Communications, Icon Entertainment International, Marquis Films Ltd.
Продолжительность: 01:55:57.951
Перевод: Профессиональный (многоголосый закадровый) Фортуна-фильм

Файл
Кодек: h.264
Качество: DVDRip-AVC
Видео: 704x352 (2.35:1) @ 816x352 (анаморф), 23.976 fps, AVC, ~1306 Kbps, 0.220 bits/pixel

Русский, 48.0 KHz, AC3, 2 ch, 128 Kbps
Английский, 48.0 KHz, AC3, 6 ch, 384 Kbps
Субтитры: нет, но прошитые английские на неангл. фразы
Общее
Уникальный идентификатор : 252776840577198100114199802188288759621 (0xBE2B0C746D19BF00A2BBD01709541745)
Полное имя : G:FILMSPuteshestvie_Felitsii.1999.DVDRip-AVC.mkv
Формат : Matroska
Версия формата : Version 4 / Version 2
Размер файла : 1,47 Гбайт
Продолжительность : 1 ч. 55 м.
Общий поток : 1820 Кбит/сек
Дата кодирования : UTC 2014-12-30 21:25:05
Программа кодирования : mkvmerge v7.4.0 ('Circles') 64bit built on Dec 12 2014 12:19:56
Библиотека кодирования : libebml v1.3.0 + libmatroska v1.4.1
DURATION : 01:55:57.888000000
NUMBER_OF_FRAMES : 217434
NUMBER_OF_BYTES : 111326208
_STATISTICS_WRITING_APP : mkvmerge v7.4.0 ('Circles') 64bit built on Dec 12 2014 12:19:56
_STATISTICS_WRITING_DATE_UTC : 2014-12-30 21:25:05
_STATISTICS_TAGS : BPS DURATION NUMBER_OF_FRAMES NUMBER_OF_BYTES

Видео
Идентификатор : 1
Формат : AVC
Формат/Информация : Advanced Video Codec
Профиль формата : High@L4.1
Параметр CABAC формата : Да
Параметр ReFrames формата : 16 кадров
Идентификатор кодека : V_MPEG4/ISO/AVC
Продолжительность : 1 ч. 55 м.
Битрейт : 1306 Кбит/сек
Ширина : 704 пикселя
Высота : 352 пикселя
Соотношение сторон : 2,35:1
Соотношение сторон в оригинале : 2,35:1
Режим частоты кадров : Постоянный
Частота кадров : 23,976 кадра/сек
Цветовое пространство : YUV
Субдискретизация насыщенности : 4:2:0
Битовая глубина : 8 бит
Тип развёртки : Прогрессивная
Бит/(Пиксели*Кадры) : 0.220
Размер потока : 1,03 Гбайт (70%)
Библиотека кодирования : x264 core 142 r2431 ac76440
Настройки программы : cabac=1 / ref=16 / deblock=1:0:0 / analyse=0x3:0x133 / me=umh / subme=10 / psy=1 / psy_rd=1.10:0.10 / mixed_ref=1 / me_range=32 / chroma_me=1 / trellis=2 / 8x8dct=1 / cqm=0 / deadzone=21,11 / fast_pskip=0 / chroma_qp_offset=-6 / threads=8 / lookahead_threads=1 / sliced_threads=0 / nr=0 / decimate=0 / interlaced=0 / bluray_compat=0 / constrained_intra=0 / bframes=9 / b_pyramid=2 / b_adapt=2 / b_bias=0 / direct=3 / weightb=1 / open_gop=0 / weightp=2 / keyint=240 / keyint_min=23 / scenecut=40 / intra_refresh=0 / rc_lookahead=60 / rc=2pass / mbtree=0 / bitrate=1306 / ratetol=1.0 / qcomp=0.60 / qpmin=0 / qpmax=69 / qpstep=4 / cplxblur=20.0 / qblur=0.5 / vbv_maxrate=50000 / vbv_bufsize=62500 / nal_hrd=none / filler=0 / ip_ratio=1.40 / pb_ratio=1.30 / aq=1:1.00
Default : Нет
Forced : Нет
Коэффициенты матрицы : BT.601
colour_range : Limited
DURATION : 01:55:57.951000000
NUMBER_OF_FRAMES : 166824
NUMBER_OF_BYTES : 1136150978
_STATISTICS_WRITING_APP : mkvmerge v7.4.0 ('Circles') 64bit built on Dec 12 2014 12:19:56
_STATISTICS_WRITING_DATE_UTC : 2014-12-30 21:25:05
_STATISTICS_TAGS : BPS DURATION NUMBER_OF_FRAMES NUMBER_OF_BYTES

Аудио #1
Идентификатор : 2
Формат : AC-3
Формат/Информация : Audio Coding 3
Расширение режима : CM (complete main)
Параметр Endianness формата : Big
Идентификатор кодека : A_AC3
Продолжительность : 1 ч. 55 м.
Вид битрейта : Постоянный
Битрейт : 128 Кбит/сек
Каналы : 2 канала
Расположение каналов : Front: L R
Частота : 48,0 КГц
Битовая глубина : 16 бит
Метод сжатия : С потерями
Размер потока : 106 Мбайт (7%)
Язык : Russian
Default : Да
Forced : Нет

Аудио #2
Идентификатор : 3
Формат : AC-3
Формат/Информация : Audio Coding 3
Расширение режима : CM (complete main)
Параметр Endianness формата : Big
Идентификатор кодека : A_AC3
Продолжительность : 1 ч. 55 м.
Вид битрейта : Постоянный
Битрейт : 384 Кбит/сек
Каналы : 6 каналов
Расположение каналов : Front: L C R, Side: L R, LFE
Частота : 48,0 КГц
Битовая глубина : 16 бит
Метод сжатия : С потерями
Размер потока : 319 Мбайт (21%)
Язык : English
Default : Нет
Forced : Нет

Меню
00:00:00.000 : en:Chapter 01
00:03:58.267 : en:Chapter 02
00:05:36.434 : en:Chapter 03
00:08:01.768 : en:Chapter 04
00:09:46.102 : en:Chapter 05
00:12:12.602 : en:Chapter 06
00:16:29.936 : en:Chapter 07
00:22:06.804 : en:Chapter 08
00:26:39.104 : en:Chapter 09
00:29:04.604 : en:Chapter 10
00:31:07.604 : en:Chapter 11
00:34:44.271 : en:Chapter 12
00:39:15.105 : en:Chapter 13
00:44:05.939 : en:Chapter 14
00:48:51.439 : en:Chapter 15
00:51:21.639 : en:Chapter 16
00:54:17.639 : en:Chapter 17
00:58:16.141 : en:Chapter 18
01:02:29.708 : en:Chapter 19
01:05:04.042 : en:Chapter 20
01:09:27.910 : en:Chapter 21
01:13:14.210 : en:Chapter 22
01:16:38.410 : en:Chapter 23
01:18:52.877 : en:Chapter 24
01:26:35.211 : en:Chapter 25
01:28:59.045 : en:Chapter 26
01:31:01.045 : en:Chapter 27
01:36:21.746 : en:Chapter 28
01:40:41.213 : en:Chapter 29
01:44:35.880 : en:Chapter 30
01:47:33.214 : en:Chapter 31
01:49:27.214 : en:Chapter 32
frame I:926 Avg QP:16.68 size: 52362
frame P:33357 Avg QP:19.42 size: 17110
frame B:132541 Avg QP:20.93 size: 3900
Исходник R1 Artisan HE - в отличие от R2, здесь фильм представлен с OAR 2:35:1. В R2 кинотеатральный формат "запихнули" в 1.85:1, вследствие чего произошла потеря части изображения по краям.
СкриншотыR1
R2
Релиз от: Temperest



Скачать Путешествие.Фелиции.Felicia's.Journey.(Атом.Эгоян).[1999.триллер.драма.DVDRip-AVC].[MVO].torrent без регистрации
Золото ЗОЛОТАЯ РАЗДАЧА! СКАЧАННОЕ НЕ ЗАСЧИТЫВАЕТСЯ! Золото
Дата: Зарегистрирован   [ Тип: внутренний ] Как тут cкачать?
MAGNET ссылка
MAGNET ссылка


Скачать .torrent

15 KB

Статус: проверено DHT
Скачан: торрент - 104 раз, раздача полностью - 1 раз
Размер: 1,47 GB
Оценка:  - (Голосов: 0)
Поблагодарили: 1
Поделиться ссылкой на эту раздачу с друзьями:
В контактеFacebookОдноклассникиTwitterLivejournalМой МирLiveinternet
 

 
Показать сообщения:    


Вы не можете начинать темы
Вы не можете отвечать на сообщения
Вы не можете редактировать свои сообщения
Вы не можете удалять свои сообщения
Вы не можете голосовать в опросах
Вы не можете прикреплять файлы к сообщениям
Вы можете скачивать файлы