Loading...
Error

Скачать Жестокие люди / Fierce People (Гриффин Данн) [2005, драма, триллер, экранизация, WEB-DLRip-AVC] [Dub]+[DVO]+[Оригинал]+[Sub]x2 торрент без регистрации

 
Статистика раздачи
Размер:  2,7 GB   |    Скачан:  101 раз
Сидов:  1  [  0 KB/s  ]  
 
Автор Сообщение

Marsianka

[] 

Информация о фильме
Название: Жестокие люди
Оригинальное название: Fierce People
Год выхода: 2005
Жанр: драма, триллер, экранизация
Режиссер: Гриффин Данн
В ролях: Дайан Лэйн, Антон Ельчин, Дональд Сазерленд, Крис Эванс, Кристен Стюарт, Пас де ла Уэрта, Блу Манкума, Элизабет Перкинс, Кристофер Шайер, Гари Чок, Райан МакДональд, Декстер Белл, Кейли Дей

О фильме:
Экранизация одноименного романа Дирка Уиттенборна. Лиз — физиотерапевт, среди ее клиентов очень богатые люди. В жизни этой очаровательной молодой женщине сопутствует успех. После разрыва с мужем она сама воспитывает сына-подростка. Ее сын Финн нуждается в родительской заботе и много времени проводит в мыслях об отце, знаменитом ученом-антропологе, изучающем в дебрях Амазонии нравы первобытного племени, называемого за безжалостные обычаи и дикие нравы «Жестокими людьми». Чтобы сменить обстановку и больше уделять времени ребенку, Лиз принимает приглашение мультимиллионера Огдена Осборна, одного из своих влиятельных клиентов, стать его личным врачом и поселиться на роскошном ранчо. Избранное общество готово принять в свой круг прекрасную протеже Осборна… Она не подозревала, что ее благополучие и радость вызывает у кого-то жгучую зависть, ревность и желание мстить. Таинственный враг знает, как дорог Лиз ее ребенок, и наносит удар, пытаясь убить ее сына. Лиз начинает собственное расследование, и вскоре начинает понимать, что она и ее ребенок оказались во власти по-настоящему «жестоких людей»…



Страна: США, Канада
Студия: Industry Entertainment, Lions Gate Entertainment, Lions Gate Films Inc.
Продолжительность: 01:51:56
Перевод: Дублированный, профессиональный двухголосый

Файл
Кодек: MPEG-4 AVC
Качество: WEB-DLRip-AVC
Видео: 2400 Кбит/с, 1024x552
Звук: Русский (АС3, 2 ch, 224 Кбит/с), (АС3, 6 ch, 448 Кбит/с), английский (АС3, 6 ch, 384 Кбит/с)
Субтитры: Русские,английские
Рип от StarbirS
Релиз группы NovaLan

Аудио: Russian: AC3, 48 kHz, AC3, 3/2 (L,C,R,l,r) + LFE ch, ~448.00 kbps avg - Дублированный (DVD R5)
Аудио: Russian: AC3, 48 kHz, AC3, 2 (L,R) ch, ~224.00 kbps avg - Профессиональный двухголосый
Аудио: English: AC3, 48 kHz, AC3, 3/2 (L,C,R,l,r) + LFE ch, ~384.00 kbps avg - Оригинал

x264 [info]: frame I:1346 Avg QP:13.72 size: 94416
x264 [info]: frame P:44413 Avg QP:17.09 size: 27988
x264 [info]: frame B:115281 Avg QP:21.09 size: 5589
x264 [info]: consecutive B-frames: 2.7% 7.2% 4.7% 74.9% 4.7% 3.8% 0.7% 0.5% 0.2% 0.6%
Формат : Matroska
Версия формата : Version 4 / Version 2
Размер файла : 2,70 Гбайт
Продолжительность : 1 ч. 51 м.
Общий поток : 3458 Кбит/сек
Название фильма : Fierce.People.2005.x264.WEB-DLRip.(AVC).NovaLan
Дата кодирования : UTC 2014-09-30 07:36:57
Программа кодирования : mkvmerge v7.2.0 ('On Every Street') 64bit built on Sep 13 2014 15:52:10
Библиотека кодирования : libebml v1.3.0 + libmatroska v1.4.1
DURATION : 01:46:03.685000000
NUMBER_OF_FRAMES : 1088
NUMBER_OF_BYTES : 41802
_STATISTICS_WRITING_APP : mkvmerge v7.2.0 ('On Every Street') 64bit built on Sep 13 2014 15:52:10
_STATISTICS_WRITING_DATE_UTC : 2014-09-30 07:36:57
_STATISTICS_TAGS : BPS DURATION NUMBER_OF_FRAMES NUMBER_OF_BYTES

Видео
Идентификатор : 1
Формат : AVC
Формат/Информация : Advanced Video Codec
Профиль формата : High@L4.1
Параметр CABAC формата : Да
Параметр ReFrames формата : 11 кадров
Идентификатор кодека : V_MPEG4/ISO/AVC
Продолжительность : 1 ч. 51 м.
Битрейт : 2400 Кбит/сек
Ширина : 1024 пикселя
Высота : 552 пикселя
Соотношение сторон : 1,85:1
Режим частоты кадров : Постоянный
Частота кадров : 23,976 кадра/сек
Цветовое пространство : YUV
Субдискретизация насыщенности : 4:2:0
Битовая глубина : 8 бит
Тип развёртки : Прогрессивная
Бит/(Пиксели*Кадры) : 0.177
Размер потока : 1,82 Гбайт (67%)
Заголовок : Fierce.People.2005.x264.WEB-DLRip.(AVC).by.StarbirS
Библиотека кодирования : x264 core 138 r2358 9e941d1
Настройки программы : cabac=1 / ref=11 / deblock=1:-3:-3 / analyse=0x3:0x113 / me=umh / subme=10 / psy=1 / psy_rd=1.00:0.00 / mixed_ref=1 / me_range=32 / chroma_me=1 / trellis=2 / 8x8dct=1 / cqm=0 / deadzone=21,11 / fast_pskip=1 / chroma_qp_offset=-2 / threads=6 / lookahead_threads=1 / sliced_threads=0 / nr=0 / decimate=1 / interlaced=0 / bluray_compat=0 / constrained_intra=0 / bframes=9 / b_pyramid=2 / b_adapt=2 / b_bias=0 / direct=3 / weightb=1 / open_gop=1 / weightp=2 / keyint=230 / keyint_min=22 / scenecut=40 / intra_refresh=0 / rc_lookahead=40 / rc=2pass / mbtree=1 / bitrate=2400 / ratetol=1.0 / qcomp=0.60 / qpmin=0 / qpmax=69 / qpstep=4 / cplxblur=20.0 / qblur=0.5 / ip_ratio=1.40 / aq=1:1.00
Default : Да
Forced : Нет

Аудио #1
Идентификатор : 2
Формат : AC-3
Формат/Информация : Audio Coding 3
Расширение режима : CM (complete main)
Параметр Endianness формата : Big
Идентификатор кодека : A_AC3
Продолжительность : 1 ч. 51 м.
Вид битрейта : Постоянный
Битрейт : 448 Кбит/сек
Каналы : 6 каналов
Расположение каналов : Front: L C R, Side: L R, LFE
Частота : 48,0 КГц
Битовая глубина : 16 бит
Метод сжатия : С потерями
Размер потока : 359 Мбайт (13%)
Заголовок : Дублированный (DVD R5 - «Lizard Cinema»)
Язык : Russian
Default : Да
Forced : Нет

Аудио #2
Идентификатор : 3
Формат : AC-3
Формат/Информация : Audio Coding 3
Расширение режима : CM (complete main)
Параметр Endianness формата : Big
Идентификатор кодека : A_AC3
Продолжительность : 1 ч. 51 м.
Вид битрейта : Постоянный
Битрейт : 224 Кбит/сек
Каналы : 2 канала
Расположение каналов : Front: L R
Частота : 48,0 КГц
Битовая глубина : 16 бит
Метод сжатия : С потерями
Размер потока : 179 Мбайт (6%)
Заголовок : Профессиональный двухголосый
Язык : Russian
Default : Нет
Forced : Нет

Аудио #3
Идентификатор : 4
Формат : AC-3
Формат/Информация : Audio Coding 3
Расширение режима : CM (complete main)
Параметр Endianness формата : Big
Идентификатор кодека : A_AC3
Продолжительность : 1 ч. 51 м.
Вид битрейта : Постоянный
Битрейт : 384 Кбит/сек
Каналы : 6 каналов
Расположение каналов : Front: L C R, Side: L R, LFE
Частота : 48,0 КГц
Битовая глубина : 16 бит
Метод сжатия : С потерями
Размер потока : 307 Мбайт (11%)
Заголовок : Оригинал
Язык : English
Default : Нет
Forced : Нет

Текст #1
Идентификатор : 5
Формат : UTF-8
Идентификатор кодека : S_TEXT/UTF8
Идентификатор кодека/Информация : UTF-8 Plain Text
Заголовок : Русские
Язык : Russian
Default : Да
Forced : Нет

Текст #2
Идентификатор : 6
Формат : UTF-8
Идентификатор кодека : S_TEXT/UTF8
Идентификатор кодека/Информация : UTF-8 Plain Text
Заголовок : Английские
Язык : English
Default : Нет
Forced : Нет

Меню
00:00:00.000 : en: 00:00:00
00:08:59.128 : en: 00:08:59
00:17:11.700 : en: 00:17:11
00:25:26.648 : en: 00:25:26
00:33:53.234 : en: 00:33:53
00:40:26.165 : en: 00:40:26
00:51:06.383 : en: 00:51:06
01:05:38.872 : en: 01:05:38
01:14:25.644 : en: 01:14:25
01:22:13.817 : en: 01:22:13
01:36:07.726 : en: 01:36:07
01:45:05.801 : en: 01:45:05
Релиз от:



Скачать Жестокие.люди.Fierce.People.(Гриффин.Данн).[2005.драма.триллер.экранизация.WEB-DLRip-AVC].[Dub]+[DVO]+[Оригинал]+[Sub]x2.torrent без регистрации
Золото ЗОЛОТАЯ РАЗДАЧА! СКАЧАННОЕ НЕ ЗАСЧИТЫВАЕТСЯ! Золото
Дата: Зарегистрирован   [ Тип: внутренний ] Как тут cкачать?
MAGNET ссылка
MAGNET ссылка


Скачать .torrent

14 KB

Статус: проверено DHT
Скачан: торрент - 101 раз, раздача полностью - 2 раз
Размер: 2,7 GB
Оценка:  - (Голосов: 0)
Поблагодарили: 1
Поделиться ссылкой на эту раздачу с друзьями:
В контактеFacebookОдноклассникиTwitterLivejournalМой МирLiveinternet
 

 
Показать сообщения:    


Вы не можете начинать темы
Вы не можете отвечать на сообщения
Вы не можете редактировать свои сообщения
Вы не можете удалять свои сообщения
Вы не можете голосовать в опросах
Вы не можете прикреплять файлы к сообщениям
Вы можете скачивать файлы