Loading...
Error

Скачать Вечность / Forever (сезон 01) (Мэтью Миллер) [2014-2015, фантастика, драма, WEB-DLRip] [MVO (LostFilm)] торрент без регистрации

 
Статистика раздачи
Размер:  13,4 GB   |    Скачан:  200 раз
Сидов:  1  [  0 KB/s  ]  
 
Автор Сообщение

МихаНЕзатор

[] 

Информация о фильме
Название: Вечность
Оригинальное название: Forever
Год выхода: 2014
Жанр: Фантастика, драма
Режиссер: Мэтью Миллер

В ролях: Йоан Гриффит, Лоррейн Туссен, Алана Де Ла Гарза, Донни Кешаварц, Джоэль Мур, Джадд Хёрш, Микаелла Эшли, Джудит Лайтфут Кларк, Джессика ДиДжиованни, Джулиан Гэмбл

О фильме: У доктора Генри Моргана, судебно-медицинского эксперта Нью-Йорка, есть секрет. Он изучает мертвых не только, чтобы раскрывать уголовные дела. Он это делает, чтобы раскрыть тайну, которая ускользала от него на протяжении 200 лет — причину своего бессмертия…

Релиз от:

Страна: США
Студия: Lin Pictures, Warner Bros. Television
Продолжительность: 20 x ~ 00:43:00
Перевод: Профессиональный (многоголосый, закадровый) [LostFilm]

Файл
Формат: AVI
Качество: WEB-DLRip
Видео: XviD, 720x400, ~1800 kbps, 23.976 fps
Аудио: AC3, 48.0 KHz, 2 ch, 192 Kbps
Субтитры: Нет

АНОНСЫ ПОПУЛЯРНЫХ РАЗДАЧ


Торрент обновлён, добавлена 22-я серия!

01. Пилот (Pilot)
02. Семь раз отмерь... (Look Before You Leap)
03. Источник вечной молодости (Fountain of Youth)
04. Искусство убийства (The Art of Murder)
05. Боксёрский перелом (The Pugilist Break)
06. С психопатами сложно (The Frustrating Thing About Psychopaths)
07. Баловни Нью-Йорка (New York Kids)
08. В экстазе агонии (The Ecstasy of Agony)
09. Шесть утра (6 A.M.)
10. Человек в дорогом костюме (The Man in the Killer Suit)
11. Голый купальщик (Skinny Dipper)
12. Волки дремучего Бруклина (The Wolves of Deep Brooklyn)
13. Бриллианты навсегда (Diamonds Are Forever)
14. Гитлер в разрезе (Hitler on the Half-Shell)
15. Король с площади Колумба (The King of Columbus Circle)
16. Воспоминания об убийстве (Memories of Murder)
17. Социальная инженерия (Social Engineering)
18. У мертвецов длинные языки (Dead Men Tell Long Tales)
19. Панк-рок мёртв (Punk Is Dead)
20. Из кожи вон (Best Foot Forward)
21. Та самая ночь (The Night in Question)
22. Последняя смерть Генри Моргана (The Last Death of Henry Morgan)
Complete name : E:KinoVechnost'.XviD.WEB-DLRip.LF.GeneralfilmVechnost'.S01.2014-2015.XviD.WEB-DLRip.LF.GeneralfilmVechnost'.s01e20.2015.XviD.WEB-DLRip.LF.Generalfilm.avi
Format : AVI
Format/Info : Audio Video Interleave
File size : 623 MiB
Duration : 43mn 11s
Overall bit rate : 2 018 Kbps
Writing application : VirtualDubMod 1.5.10.3 | www.virtualdub-fr.org || (build 2550/release)
Writing library : VirtualDubMod build 2550/release

Video
ID : 0
Format : MPEG-4 Visual
Format profile : Advanced Simple@L5
Format settings, BVOP : 3
Format settings, QPel : Yes
Format settings, GMC : 3 warppoints
Format settings, Matrix : Default (H.263)
Codec ID : XVID
Codec ID/Hint : XviD
Duration : 43mn 11s
Bit rate : 1 816 Kbps
Width : 720 pixels
Height : 400 pixels
Display aspect ratio : 16:9
Frame rate : 23.976 fps
Color space : YUV
Chroma subsampling : 4:2:0
Bit depth : 8 bits
Scan type : Progressive
Compression mode : Lossy
Bits/(Pixel*Frame) : 0.263
Stream size : 561 MiB (90%)
Writing library : XviD 1.2.1 (UTC 2008-12-04)

Audio
ID : 1
Format : AC-3
Format/Info : Audio Coding 3
Mode extension : CM (complete main)
Format settings, Endianness : Big
Codec ID : 2000
Duration : 43mn 11s
Bit rate mode : Constant
Bit rate : 192 Kbps
Channel count : 2 channels
Channel positions : Front: L R
Sampling rate : 48.0 KHz
Bit depth : 16 bits
Compression mode : Lossy
Stream size : 59.3 MiB (10%)
Alignment : Split accross interleaves
Interleave, duration : 42 ms (1.00 video frame)
Interleave, preload duration : 500 ms



Скачать Вечность.Forever.(сезон.01).(Мэтью.Миллер).[2014-2015.фантастика.драма.WEB-DLRip].[MVO.(LostFilm)].torrent без регистрации
Золото ЗОЛОТАЯ РАЗДАЧА! СКАЧАННОЕ НЕ ЗАСЧИТЫВАЕТСЯ! Золото
Дата: Зарегистрирован   [ Тип: внутренний ] Как тут cкачать?
MAGNET ссылка
MAGNET ссылка


Скачать .torrent

37 KB

Статус: проверено DHT
Скачан: торрент - 200 раз, раздача полностью - 224 раз
Размер: 13,4 GB
Оценка:  5 (Голосов: 1)
Поблагодарили: 5
Поделиться ссылкой на эту раздачу с друзьями:
В контактеFacebookОдноклассникиTwitterLivejournalМой МирLiveinternet
 

 
Показать сообщения:    


Вы не можете начинать темы
Вы не можете отвечать на сообщения
Вы не можете редактировать свои сообщения
Вы не можете удалять свои сообщения
Вы не можете голосовать в опросах
Вы не можете прикреплять файлы к сообщениям
Вы можете скачивать файлы