Loading...
Error

Скачать Темное дитя / Orphan Black (сезон 03) (Джон Фоусет и др.) [2015, фантастика, боевик, драма, WEB-DLRip] [MVO (To4ka)]+[Eng] торрент без регистрации

 
Статистика раздачи
Размер:  4,4 GB   |    Скачан:  167 раз
Сидов:  1  [  0 KB/s  ]  
 
Автор Сообщение

МихаНЕзатор

[] 

Информация о фильме
Название: Темное дитя
Оригинальное название: Orphan Black
Год выхода: 2015
Жанр: фантастика, боевик, драма
Режиссер: Джон Фоусет, Т.Дж. Скотт, Дэвид Фрэйзи

В ролях: Татьяна Маслани, Джордан Джаварис, Мария Дойл Кеннеди, Дилан Брюс, Кевин Ханчард, Скайлер Уэкслер, Эвелин Брошу, Кристиан Бруун, Инга Кадранел, Майкл Мэндо

О фильме: Сара — сирота, которой выпало перенести немало лишений в жизни. Лишенная родительской любви и заботы, Сара чувствует себя отрешенной от этого мира, в котором, как ей кажется, она никому не нужна. Нет ни единого человека, который бы заботился о ней. Но вот и без того нерадостная жизнь девушки однажды омрачается одним трагическим происшествием. Сара невольно становится свидетельницей того, как молодая женщина накладывает на себя руки. Самое страшное — покойная пугающе похожа на саму Сару. Сара совершает странный поступок — она заменяет собой погибшую, выдав себя за неё. Но это становится началом ряда несчастливых событий, которые лишь добавляют Саре проблем. Но на этом не заканчивается. Сара понимает, что она и погибшая не только невероятно похожи друг на друга…



Страна: Канада, США
Студия: Temple Street Productions, BBC America, Bell Media
Продолжительность: ~00:45:00 серия
Перевод: Любительский (многоголосый закадровый) - To4ka

Файл
Кодек: XviD / MP3
Качество: WEB-DLRip
Видео: MPEG4, XviD, 720x400 (16:9), 23.976 fps, 1 173 Kbps (0.170 bit/pixel) А
Звук:
Аудио #1: MP3, 48.0 KHz, 2 ch, 128 Kbps, CBR [rus]
Аудио #2: MP3, 48.0 KHz, 2 ch, 128 Kbps, CBR [eng]

АНОНСЫ ПОПУЛЯРНЫХ РАЗДАЧ


Торрент обновлён, добавлена 10-я серия!
General
Complete name : Orphan.Black.s03.WEB-DLRip.To4ka/Orphan.Black.s03e01.WEB-DLRip.Rus.Eng..avi
Format : AVI
Format/Info : Audio Video Interleave
File size : 450 MiB
Duration : 43mn 37s
Overall bit rate : 1 443 Kbps
Writing application : VirtualDubModRus 1.5.10.2 (build 2542/release)
Writing library : VirtualDubMod build 2542/release

Video
ID : 0
Format : MPEG-4 Visual
Format profile : Advanced Simple@L5
Format settings, BVOP : 1
Format settings, QPel : No
Format settings, GMC : No warppoints
Format settings, Matrix : Default (MPEG)
Codec ID : XVID
Codec ID/Hint : XviD
Duration : 43mn 37s
Bit rate : 1 173 Kbps
Width : 720 pixels
Height : 400 pixels
Display aspect ratio : 16:9
Frame rate : 23.976 fps
Color space : YUV
Chroma subsampling : 4:2:0
Bit depth : 8 bits
Scan type : Progressive
Compression mode : Lossy
Bits/(Pixel*Frame) : 0.170
Stream size : 366 MiB (81%)
Writing library : XviD 73

Audio #1
ID : 1
Format : MPEG Audio
Format version : Version 1
Format profile : Layer 3
Mode : Joint stereo
Mode extension : MS Stereo
Codec ID : 55
Codec ID/Hint : MP3
Duration : 43mn 37s
Bit rate mode : Constant
Bit rate : 128 Kbps
Channel(s) : 2 channels
Sampling rate : 48.0 KHz
Compression mode : Lossy
Stream size : 39.9 MiB (9%)
Alignment : Aligned on interleaves
Interleave, duration : 42 ms (1.00 video frame)
Interleave, preload duration : 504 ms

Audio #2
ID : 2
Format : MPEG Audio
Format version : Version 1
Format profile : Layer 3
Mode : Joint stereo
Mode extension : MS Stereo
Codec ID : 55
Codec ID/Hint : MP3
Duration : 43mn 37s
Bit rate mode : Constant
Bit rate : 128 Kbps
Channel(s) : 2 channels
Sampling rate : 48.0 KHz
Compression mode : Lossy
Stream size : 39.9 MiB (9%)
Alignment : Aligned on interleaves
Interleave, duration : 42 ms (1.00 video frame)
Interleave, preload duration : 504 ms



Скачать Темное.дитя.Orphan.Black.(сезон.03).(Джон.Фоусет.и.др.).[2015.фантастика.боевик.драма.WEB-DLRip].[MVO.(To4ka)]+[Eng].torrent без регистрации
Золото ЗОЛОТАЯ РАЗДАЧА! СКАЧАННОЕ НЕ ЗАСЧИТЫВАЕТСЯ! Золото
Дата: Зарегистрирован   [ Тип: внутренний ] Как тут cкачать?
MAGNET ссылка
MAGNET ссылка


Скачать .torrent

23 KB

Статус: проверено DHT
Скачан: торрент - 167 раз, раздача полностью - 90 раз
Размер: 4,4 GB
Оценка:  - (Голосов: 0)
Поблагодарили: 4
Поделиться ссылкой на эту раздачу с друзьями:
В контактеFacebookОдноклассникиTwitterLivejournalМой МирLiveinternet
 

 
Показать сообщения:    


Вы не можете начинать темы
Вы не можете отвечать на сообщения
Вы не можете редактировать свои сообщения
Вы не можете удалять свои сообщения
Вы не можете голосовать в опросах
Вы не можете прикреплять файлы к сообщениям
Вы можете скачивать файлы