Loading...
Error

Скачать Кин Эдди / Keen Eddie [01-13 из 13] (Саймон Уэст) [2003, детектив, комедия, DVDRip] [MVO (CBS-DRAMA)]+[Eng] торрент без регистрации

 
Статистика раздачи
Размер:  9,52 GB   |    Скачан:  120 раз
Сидов:  1  [  0 KB/s  ]  
 
Автор Сообщение

МихаНЕзатор

[] 

Информация о фильме
Название: Кин Эдди
Оригинальное название: Keen Eddie
Год выхода: 2003
Жанр: детектив, комедия
Режиссер: Саймон Уэст

В ролях: Марк Вэлли, Сиенна Миллер, Джулиан Райнд-Татт, Колин Сэлмон, Рэйчел Баккли, Тео Фрайзер Стил, Дэниэл Голденберг, Алексей Сейл, Алекс МакСуини, Сара-Джейн Поттс, Ивана Хорват, Аня Лахири, Мередит Остром, Мартин Хэнкок, Ник Малиновски, Морвенна Бэнкс, Дамиан Сэмюэлс, Юл Васкез, Лиза Барбуша, Том Бейтс, Джэйк Бродер, Джеймс Бэннон, Лоуренс Пенри-Джонс, Джейми Мюррэй, Кассандра Белл, Стив Ноулз, Брюс Пэйн, Акбар Курта

О фильме: Эдди Арлетт — детектив полиции Нью-Йорка. Работник он активный, инициативный, оперативный, профессиональный, но вот только очень доверчивый. Особенно, когда речь заходит о доверии красивой женщине, которая может вывести на след одного из крупнейших поставщиков синтетического наркотика в Европу. Доверяй, но проверяй! Иначе можно сорвать давно готовившуюся операцию по поимке наркодельцов и отправиться на их поиски в Великобританию. Кто сказал, что лондонские полицейские примут нашего бравого американца с распростертыми объятиями? Разве только, если он не продемонстрирует чудеса американской смекалки, силу характера, настойчивость и не найдет преступников в р

Релиз от:

Страна: Великобритания, США
Студия: Frequency Films, Paramount British Pictures Ltd., Paramount Network Television Productions
Продолжительность: 13 х ~ 00:45:00
Перевод: Профессиональный многоголосый (CBS-DRAMA)

Файл
Кодек: XviD
Качество: DVDRip
Видео: XviD ~ 1720 Кбит/с, 720x544
Звук: Русский (AC3, 2 ch, 192 Кбит/с), английский (AC3, 6 ch, 448 Кбит/с)

АНОНСЫ ПОПУЛЯРНЫХ РАЗДАЧ

за диск, 4хDVD9, издание и за сырые дорожки CBS-DRAMA огромное спасибо greenst
нет такого качества видео в сети вообще...
НТВ озвучку не добавил из за отсутствия перевода в одной серии, синхрон русской дороги и рип мой, спасибо мне)
здесь полный перевод на все серии и качество говорит за себя....

General
Complete name : Kin.Eddi.2003.XviD.DVDRip.ExKinoRayKin.Eddi.(12.serija).2003.XviD.DVDRip.ExKinoRay.avi
Format : AVI
Format/Info : Audio Video Interleave
File size : 751 MiB
Duration : 44mn 3s
Overall bit rate : 2 382 Kbps
Writing application : VirtualDubMod 1.5.10.2 (build 2540/release)
Writing library : VirtualDubMod build 2540/release
Video
ID : 0
Format : MPEG-4 Visual
Format profile : Advanced Simple@L5
Format settings, BVOP : 1
Format settings, QPel : No
Format settings, GMC : No warppoints
Format settings, Matrix : Custom
Codec ID : XVID
Codec ID/Hint : XviD
Duration : 44mn 3s
Bit rate : 1 728 Kbps
Width : 720 pixels
Height : 544 pixels
Display aspect ratio : 4:3
Frame rate : 23.976 fps
Color space : YUV
Chroma subsampling : 4:2:0
Bit depth : 8 bits
Scan type : Progressive
Compression mode : Lossy
Bits/(Pixel*Frame) : 0.184
Stream size : 545 MiB (73%)
Writing library : XviD 1.2.1 (UTC 2008-12-04)
Audio #1
ID : 1
Format : AC-3
Format/Info : Audio Coding 3
Mode extension : CM (complete main)
Format settings, Endianness : Big
Codec ID : 2000
Duration : 44mn 2s
Bit rate mode : Constant
Bit rate : 192 Kbps
Channel(s) : 2 channels
Channel positions : Front: L R
Sampling rate : 48.0 KHz
Bit depth : 16 bits
Compression mode : Lossy
Stream size : 60.5 MiB (8%)
Alignment : Split accross interleaves
Interleave, duration : 42 ms (1.00 video frame)
Interleave, preload duratio : 500 ms
Audio #2
ID : 2
Format : AC-3
Format/Info : Audio Coding 3
Mode extension : CM (complete main)
Format settings, Endianness : Big
Codec ID : 2000
Duration : 44mn 3s
Bit rate mode : Constant
Bit rate : 448 Kbps
Channel(s) : 6 channels
Channel positions : Front: L C R, Side: L R, LFE
Sampling rate : 48.0 KHz
Bit depth : 16 bits
Compression mode : Lossy
Stream size : 141 MiB (19%)
Alignment : Split accross interleaves
Interleave, duration : 42 ms (1.00 video frame)
Interleave, preload duratio : 500 ms



Скачать Кин.Эдди.Keen.Eddie.[01-13.из.13].(Саймон.Уэст).[2003.детектив.комедия.DVDRip].[MVO.(CBS-DRAMA)]+[Eng].torrent без регистрации
Золото ЗОЛОТАЯ РАЗДАЧА! СКАЧАННОЕ НЕ ЗАСЧИТЫВАЕТСЯ! Золото
Дата: Зарегистрирован   [ Тип: внутренний ] Как тут cкачать?
MAGNET ссылка
MAGNET ссылка


Скачать .torrent

49 KB

Статус: проверено DHT
Скачан: торрент - 120 раз, раздача полностью - 12 раз
Размер: 9,52 GB
Оценка:  - (Голосов: 0)
Поблагодарили: 0
Поделиться ссылкой на эту раздачу с друзьями:
В контактеFacebookОдноклассникиTwitterLivejournalМой МирLiveinternet
 

 
Показать сообщения:    


Вы не можете начинать темы
Вы не можете отвечать на сообщения
Вы не можете редактировать свои сообщения
Вы не можете удалять свои сообщения
Вы не можете голосовать в опросах
Вы не можете прикреплять файлы к сообщениям
Вы можете скачивать файлы