Loading...
Error

Скачать Срочно требуется звезда / Life with Mikey (Джеймс Лэпайн) [1993, комедия, семейный, BDRip AVC] [AVO]+[Оригинал] торрент без регистрации

 
Статистика раздачи
Размер:  2,1 GB   |    Скачан:  106 раз
Сидов:  1  [  0 KB/s  ]  
 
Автор Сообщение

Marsianka

[] 

Название: Срочно требуется звезда
Оригинальное название: Life with Mikey
Год выпуска: 1993
Страна: США
Жанр: комедия, семейный
Продолжительность: 01:31:24
Перевод: авторский

Режиссёр: Джеймс Лэпайн

В ролях: Майкл Джей Фокс, Натан Лэйн, Синди Лоупер, Дэвид Крамхолц, Дэвид Хаддлстон, Кристина Видал, Виктор Гарбер, Фрэнсис Чэйни, Кэтрин Гроди, Хэзер МакРэй, Мэри Элис

Описание: Не секрет, что дети-вундеркинды часто вырастают в заурядных взрослых. Как, например, Майкл Чепмэн, ребенком бывший телезвездой, но с годами потерявший популярность. В свои теперешние 30 с хвостиком он совладелец дышащего на ладан актёрского агентства для детей. От закрытия его агентство может спасти лишь чудо, например — сверхталантливое дитя, которое могло бы стать звездой рекламных роликов. И, как ни странно, чудо происходит. В один прекрасный миг оно появляется — 10-летняя «сиротка» Энджи, карманница, врунья и потрясающая нахалка. Она совершенно очаровывает миллионы телезрителей...



Качество: BDRip-AVC Сравнение с исходником
Формат: MKV
Видео: MPEG-4 AVC, 2777 Кбит/с, 1024x576, 23,976 кадра/с
Аудио 1: русский, AC3, 256 kbps, 2 ch, 48 kHz [авторский, Алексей Михалёв]
Аудио 2: английский, AC3, 192 kbps, 2 ch, 48 kHz [оригинал]
frame I:1012 Avg QP:19.50 size: 57926
frame P:23509 Avg QP:20.51 size: 28484
frame B:106979 Avg QP:22.04 size: 11396

Общее
Уникальный идентификатор : 231841348192458562789832755036813150032 (0xAE6B04FCD81DA644859FF2E9E69E4750)
Полное имя : D:VideoСрочно требуется звезда.1993.BDRip.AVC.mkv
Формат : Matroska
Версия формата : Version 4 / Version 2
Размер файла : 2,10 Гбайт
Продолжительность : 1 ч. 31 м.
Общий поток : 3290 Кбит/сек
Название фильма : BDRip -- STarankov
Дата кодирования : UTC 2015-04-23 10:31:15
Программа кодирования : mkvmerge v7.8.0 ('River Man') 64bit built on Mar 27 2015 16:31:37
Библиотека кодирования : libebml v1.3.1 + libmatroska v1.4.2
DURATION : 01:31:24.576000000
NUMBER_OF_FRAMES : 171393
NUMBER_OF_BYTES : 131629824
_STATISTICS_WRITING_APP : mkvmerge v7.8.0 ('River Man') 64bit built on Mar 27 2015 16:31:37
_STATISTICS_WRITING_DATE_UTC : 2015-04-23 10:31:15
_STATISTICS_TAGS : BPS DURATION NUMBER_OF_FRAMES NUMBER_OF_BYTES

Видео
Идентификатор : 1
Формат : AVC
Формат/Информация : Advanced Video Codec
Профиль формата : High@L4.1
Параметр CABAC формата : Да
Параметр ReFrames формата : 9 кадров
Идентификатор кодека : V_MPEG4/ISO/AVC
Продолжительность : 1 ч. 31 м.
Битрейт : 2777 Кбит/сек
Ширина : 1024 пикселя
Высота : 576 пикселей
Соотношение сторон : 16:9
Режим частоты кадров : Постоянный
Частота кадров : 23,976 кадра/сек
Цветовое пространство : YUV
Субдискретизация насыщенности : 4:2:0
Битовая глубина : 8 бит
Тип развёртки : Прогрессивная
Бит/(Пиксели*Кадры) : 0.196
Размер потока : 1,77 Гбайт (84%)
Библиотека кодирования : x264 core 146 r2538 121396c
Настройки программы : cabac=1 / ref=9 / deblock=1:-1:-1 / analyse=0x3:0x113 / me=umh / subme=10 / psy=1 / psy_rd=1.00:0.15 / mixed_ref=1 / me_range=32 / chroma_me=1 / trellis=2 / 8x8dct=1 / cqm=0 / deadzone=21,11 / fast_pskip=1 / chroma_qp_offset=-3 / threads=6 / lookahead_threads=1 / sliced_threads=0 / nr=0 / decimate=1 / interlaced=0 / bluray_compat=0 / constrained_intra=0 / bframes=10 / b_pyramid=2 / b_adapt=2 / b_bias=0 / direct=1 / weightb=1 / open_gop=0 / weightp=2 / keyint=230 / keyint_min=23 / scenecut=40 / intra_refresh=0 / rc_lookahead=40 / rc=crf / mbtree=0 / crf=19.7 / qcomp=0.60 / qpmin=0 / qpmax=69 / qpstep=4 / vbv_maxrate=40000 / vbv_bufsize=50000 / crf_max=0.0 / nal_hrd=none / filler=0 / ip_ratio=1.40 / pb_ratio=1.30 / aq=1:1.00
Язык : English
Default : Да
Forced : Нет
DURATION : 01:31:24.646000000
NUMBER_OF_FRAMES : 131500
NUMBER_OF_BYTES : 1947356000
_STATISTICS_WRITING_APP : mkvmerge v7.8.0 ('River Man') 64bit built on Mar 27 2015 16:31:37
_STATISTICS_WRITING_DATE_UTC : 2015-04-23 10:31:15
_STATISTICS_TAGS : BPS DURATION NUMBER_OF_FRAMES NUMBER_OF_BYTES

Аудио #1
Идентификатор : 2
Формат : AC-3
Формат/Информация : Audio Coding 3
Профиль формата : Dolby Digital
Расширение режима : CM (complete main)
Параметр Endianness формата : Big
Идентификатор кодека : A_AC3
Продолжительность : 1 ч. 31 м.
Вид битрейта : Постоянный
Битрейт : 256 Кбит/сек
Каналы : 2 канала
Расположение каналов : Front: L R
Частота : 48,0 КГц
Битовая глубина : 16 бит
Метод сжатия : С потерями
Размер потока : 167 Мбайт (8%)
Заголовок : AVO (Алексей Михалёв)
Язык : Russian
Default : Да
Forced : Нет

Аудио #2
Идентификатор : 3
Формат : AC-3
Формат/Информация : Audio Coding 3
Расширение режима : CM (complete main)
Параметр Endianness формата : Big
Идентификатор кодека : A_AC3
Продолжительность : 1 ч. 31 м.
Вид битрейта : Постоянный
Битрейт : 192 Кбит/сек
Каналы : 2 канала
Расположение каналов : Front: L R
Частота : 48,0 КГц
Битовая глубина : 16 бит
Метод сжатия : С потерями
Размер потока : 126 Мбайт (6%)
Заголовок : Original
Язык : English
Default : Нет
Forced : Нет



Скачать Срочно.требуется.звезда.Life.with.Mikey.(Джеймс.Лэпайн).[1993.комедия.семейный.BDRip.AVC].[AVO]+[Оригинал].torrent без регистрации
Золото ЗОЛОТАЯ РАЗДАЧА! СКАЧАННОЕ НЕ ЗАСЧИТЫВАЕТСЯ! Золото
Дата: Зарегистрирован   [ Тип: внутренний ] Как тут cкачать?
MAGNET ссылка
MAGNET ссылка


Скачать .torrent

11 KB

Статус: проверено DHT
Скачан: торрент - 106 раз, раздача полностью - 0 раз
Размер: 2,1 GB
Оценка:  - (Голосов: 0)
Поблагодарили: 1
Поделиться ссылкой на эту раздачу с друзьями:
В контактеFacebookОдноклассникиTwitterLivejournalМой МирLiveinternet
 

 
Показать сообщения:    


Вы не можете начинать темы
Вы не можете отвечать на сообщения
Вы не можете редактировать свои сообщения
Вы не можете удалять свои сообщения
Вы не можете голосовать в опросах
Вы не можете прикреплять файлы к сообщениям
Вы можете скачивать файлы