Loading...
Error

Скачать Класс 1984 / Class of 1984 (Марк Л. Лестер) [1982, драма, криминал, DVDRip-AVC] [AVO (Гаврилов Андрей)] торрент без регистрации

 
Статистика раздачи
Размер:  2,01 GB   |    Скачан:  124 раза
Сидов:  1  [  0 KB/s  ]  
 
Автор Сообщение

Marsianka

[] 

Информация о фильме
Название: Класс 1984
Оригинальное название: Class of 1984
Год выхода: 1982
Жанр: драма, криминал
Режиссер: Марк Л. Лестер / Mark L. Lester
В ролях: Перри Кинг (Andrew Norris), Мерри Линн Росс (Diane Norris), Тимоти Ван Паттен (Peter Stegman), Родди МакДауэлл (Terry Corrigan), Стефан Арнгрим (Drugstore), Майкл Дж. Фокс (Arthur), Кейт Найт (Barnyard), Лиза Ланглуа (Patsy), Нил Клиффорд (Fallon), Эл Уоксмен (Detective Stewiski), Эрин Ноубл (Deneen), Дэвид Гарднер (Morganthau)

О фильме:
Банда оголтелых школьников преследует нового учителя, решившего навести в классе порядок. Озверевшие панки-школьники во главе с учеником-психопатом (Ван Паттен) избивают его, а жену насилуют. Месть учителя не уступает по жестокости выходкам банды, но заметно превосходит их по изощренности.


Страна: Канада
Студия: Guerilla High Productions
Продолжительность: 01:37:49.531
Перевод: Авторский (одноголосый закадровый) Гаврилов Андрей

Файл
Кодек: h.264
Качество: DVDRip-AVC
Видео: 720x464 (1.85:1) @ 854x464 (анаморф), 23.976 fps, AVC, ~2043 Kbps, 0.255 bits/pixel
Звук:
Русский, 48.0 KHz, AC3, 6 ch, 448 Kbps
Английский, 48.0 KHz, AC3, 6 ch, 448 Kbps
Субтитры: нет

Исходник R1 Special Edition
Общее
Уникальный идентификатор : 245454705158031573385889697489960298161 (0xB8A8DB4E6D735BC496B965BD3727E6B1)
Полное имя : H:FilmsKlass_1984.1982.DVDRip-AVC.mkv
Формат : Matroska
Версия формата : Version 4 / Version 2
Размер файла : 2,01 Гбайт
Продолжительность : 1 ч. 37 м.
Общий поток : 2941 Кбит/сек
Дата кодирования : UTC 2014-11-03 05:57:58
Программа кодирования : mkvmerge v7.3.0 ('Nouages') 64bit built on Oct 22 2014 18:53:34
Библиотека кодирования : libebml v1.3.0 + libmatroska v1.4.1
DURATION : 01:37:49.504000000
NUMBER_OF_FRAMES : 183422
NUMBER_OF_BYTES : 328692224
_STATISTICS_WRITING_APP : mkvmerge v7.3.0 ('Nouages') 64bit built on Oct 22 2014 18:53:34
_STATISTICS_WRITING_DATE_UTC : 2014-11-03 05:57:58
_STATISTICS_TAGS : BPS DURATION NUMBER_OF_FRAMES NUMBER_OF_BYTES

Видео
Идентификатор : 1
Формат : AVC
Формат/Информация : Advanced Video Codec
Профиль формата : High@L4.1
Параметр CABAC формата : Да
Параметр ReFrames формата : 16 кадров
Идентификатор кодека : V_MPEG4/ISO/AVC
Продолжительность : 1 ч. 37 м.
Битрейт : 2043 Кбит/сек
Ширина : 720 пикселей
Высота : 464 пикселя
Соотношение сторон : 1,85:1
Соотношение сторон в оригинале : 1,85:1
Режим частоты кадров : Постоянный
Частота кадров : 23,976 кадра/сек
Цветовое пространство : YUV
Субдискретизация насыщенности : 4:2:0
Битовая глубина : 8 бит
Тип развёртки : Прогрессивная
Бит/(Пиксели*Кадры) : 0.255
Размер потока : 1,36 Гбайт (68%)
Библиотека кодирования : x264 core 142 r2431 ac76440
Настройки программы : cabac=1 / ref=16 / deblock=1:0:0 / analyse=0x3:0x133 / me=umh / subme=10 / psy=1 / psy_rd=1.10:0.10 / mixed_ref=1 / me_range=32 / chroma_me=1 / trellis=2 / 8x8dct=1 / cqm=0 / deadzone=21,11 / fast_pskip=0 / chroma_qp_offset=-3 / threads=8 / lookahead_threads=2 / sliced_threads=0 / nr=0 / decimate=0 / interlaced=0 / bluray_compat=0 / constrained_intra=0 / bframes=10 / b_pyramid=2 / b_adapt=2 / b_bias=0 / direct=3 / weightb=1 / open_gop=0 / weightp=2 / keyint=240 / keyint_min=23 / scenecut=60 / intra_refresh=0 / rc_lookahead=60 / rc=2pass / mbtree=0 / bitrate=2043 / ratetol=1.0 / qcomp=0.60 / qpmin=0 / qpmax=69 / qpstep=4 / cplxblur=20.0 / qblur=0.5 / vbv_maxrate=50000 / vbv_bufsize=62500 / nal_hrd=none / filler=0 / ip_ratio=1.40 / pb_ratio=1.30 / aq=1:1.00
Default : Нет
Forced : Нет
Коэффициенты матрицы : BT.601
DURATION : 01:37:49.531000000
NUMBER_OF_FRAMES : 140728
NUMBER_OF_BYTES : 1499033077
_STATISTICS_WRITING_APP : mkvmerge v7.3.0 ('Nouages') 64bit built on Oct 22 2014 18:53:34
_STATISTICS_WRITING_DATE_UTC : 2014-11-03 05:57:58
_STATISTICS_TAGS : BPS DURATION NUMBER_OF_FRAMES NUMBER_OF_BYTES

Аудио #1
Идентификатор : 2
Формат : AC-3
Формат/Информация : Audio Coding 3
Расширение режима : CM (complete main)
Параметр Endianness формата : Big
Идентификатор кодека : A_AC3
Продолжительность : 1 ч. 37 м.
Вид битрейта : Постоянный
Битрейт : 448 Кбит/сек
Каналы : 6 каналов
Расположение каналов : Front: L C R, Side: L R, LFE
Частота : 48,0 КГц
Битовая глубина : 16 бит
Метод сжатия : С потерями
Размер потока : 313 Мбайт (15%)
Язык : Russian
Default : Да
Forced : Нет

Аудио #2
Идентификатор : 3
Формат : AC-3
Формат/Информация : Audio Coding 3
Расширение режима : CM (complete main)
Параметр Endianness формата : Big
Идентификатор кодека : A_AC3
Продолжительность : 1 ч. 37 м.
Вид битрейта : Постоянный
Битрейт : 448 Кбит/сек
Каналы : 6 каналов
Расположение каналов : Front: L C R, Side: L R, LFE
Частота : 48,0 КГц
Битовая глубина : 16 бит
Метод сжатия : С потерями
Размер потока : 313 Мбайт (15%)
Язык : English
Default : Нет
Forced : Нет

Меню
00:00:00.000 : en:Chapter 01
00:03:16.834 : en:Chapter 02
00:10:28.967 : en:Chapter 03
00:14:40.801 : en:Chapter 04
00:23:15.435 : en:Chapter 05
00:27:08.869 : en:Chapter 06
00:35:44.103 : en:Chapter 07
00:40:00.770 : en:Chapter 08
00:48:58.170 : en:Chapter 09
00:53:14.537 : en:Chapter 10
00:59:18.238 : en:Chapter 11
01:07:11.772 : en:Chapter 12
01:11:49.473 : en:Chapter 13
01:17:56.740 : en:Chapter 14
01:23:17.174 : en:Chapter 15
01:34:41.174 : en:Chapter 16
Релиз от: Temperest



Скачать Класс.1984.Class.of.1984.(Марк.Л.Лестер).[1982.драма.криминал.DVDRip-AVC].[AVO.(Гаврилов.Андрей)].torrent без регистрации
Золото ЗОЛОТАЯ РАЗДАЧА! СКАЧАННОЕ НЕ ЗАСЧИТЫВАЕТСЯ! Золото
Дата: Зарегистрирован   [ Тип: внутренний ] Как тут cкачать?
MAGNET ссылка
MAGNET ссылка


Скачать .torrent

11 KB

Статус: проверено DHT
Скачан: торрент - 124 раз, раздача полностью - 18 раз
Размер: 2,01 GB
Оценка:  - (Голосов: 0)
Поблагодарили: 2
Поделиться ссылкой на эту раздачу с друзьями:
В контактеFacebookОдноклассникиTwitterLivejournalМой МирLiveinternet
 

 
Показать сообщения:    


Вы не можете начинать темы
Вы не можете отвечать на сообщения
Вы не можете редактировать свои сообщения
Вы не можете удалять свои сообщения
Вы не можете голосовать в опросах
Вы не можете прикреплять файлы к сообщениям
Вы можете скачивать файлы