Loading...
Error

Скачать Улицы Правосудия / Street Justice (01x02х01-44) (Дэвид Уиннинг и др.) [1991-1993, боевик, DVDRip] [AVO (Дольский)]+[Eng] торрент без регистрации

 
Статистика раздачи
Размер:  25,08 GB   |    Скачан:  108 раз
Сидов:  1  [  0 KB/s  ]  
 
Автор Сообщение

МихаНЕзатор

[] 



Страна: США, Канада
Производство: Stephen J. Cannell Productions
Жанр: боевик
Год выпуска: 1991-1993

Продолжительность: 44 x ~ 00:45:00

Перевод: Авторский (Дольский)

Оригинальная аудиодорожка: Английская

Режиссер: Дэвид Уиннинг, Брентон Спенсер, Билл Коркоран

В ролях: Карл Уэзерс, Брайан Джинесс, Шарлин Фернец, Маркус Чонг, Дженн Мортил, Кен Тремблетт, Тэмсин Келси, Тимоти Уэббер, Блу Манкума, Шон Орр

Описание: Сериал посвящён бывшему солдату армии США, ныне полицейскому детективу Адаму Бодроксу и Грейди Джеймсона, специалиста по единоборствам. Будучи ребёнком, Грейди спас во Вьетнаме жизнь раненному Адаму. После той встречи они никогда не виделись, и когда Адам стал копом, он поклялся найти мальчика, спасшего ему жизнь. В конце концов он его находит и выясняет, что родители Грейди, бывшие канадскими миссионерами во Вьетнаме, были убиты, и мальчик остался сиротой. Адам находт Грейди работу в баре, которым владеет совместно со своим другом Келси Мэллоем. Вскоре Грейди начинает помогать Адаму от случая к случаю, применяя знания, приобретённые им на улице, наряду с боевыми искусствами.



Исходник: DVD9 R2

Тип релиза: DVDRip

Контейнер: AVI

Видео: XviD, ~ 1704 Кбит/с, 640x480
Аудио: Русский, английский (MP3, 2 ch, 128 Кбит/с)

АНОНСЫ ПОПУЛЯРНЫХ РАЗДАЧ
Общее
Полное имя : D:1АААУлицы правосудияStreet Justice S01 одноголоскаStreetJustice_s01e03.avi
Формат : AVI
Формат/Информация : Audio Video Interleave
Размер файла : 624 Мбайт
Продолжительность : 44 м.
Общий поток : 1974 Кбит/сек
Программа кодирования : VirtualDubMod 1.5.10.3 | www.virtualdub-fr.org || (build 2550/release)
Библиотека кодирования : VirtualDubMod build 2550/release

Видео
Идентификатор : 0
Формат : MPEG-4 Visual
Профиль формата : Advanced Simple@L5
Параметр BVOP формата : 1
Параметр QPel формата : Нет
Параметр GMC формата : Без точки перехода
Параметр матрицы формата : Выборочная
Идентификатор кодека : XVID
Идентификатор кодека/Подсказка : XviD
Продолжительность : 44 м.
Битрейт : 1704 Кбит/сек
Ширина : 640 пикселей
Высота : 480 пикселей
Соотношение сторон : 4:3
Частота кадров : 23,976 кадра/сек
Цветовое пространство : YUV
Субдискретизация насыщенности : 4:2:0
Битовая глубина : 8 бит
Тип развёртки : Прогрессивная
Метод сжатия : С потерями
Бит/(Пиксели*Кадры) : 0.231
Размер потока : 539 Мбайт (86%)
Библиотека кодирования : XviD 1.2.1 (UTC 2008-12-04)

Аудио #1
Идентификатор : 1
Формат : MPEG Audio
Версия формата : Version 1
Профиль формата : Layer 3
Идентификатор кодека : 55
Идентификатор кодека/Подсказка : MP3
Продолжительность : 44 м.
Вид битрейта : Постоянный
Битрейт : 128 Кбит/сек
Каналы : 2 канала
Частота : 44,1 КГц
Метод сжатия : С потерями
Размер потока : 40,5 Мбайт (6%)
Выравнивание : Разделение по промежуткам
Продолжительность промежутка : 42 мс. (1,00 видеокадр)
Время предзагрузки промежутка : 500 мс.

Аудио #2
Идентификатор : 2
Формат : MPEG Audio
Версия формата : Version 1
Профиль формата : Layer 3
Режим : Joint stereo
Расширение режима : MS Stereo
Идентификатор кодека : 55
Идентификатор кодека/Подсказка : MP3
Продолжительность : 44 м.
Вид битрейта : Постоянный
Битрейт : 128 Кбит/сек
Каналы : 2 канала
Частота : 48,0 КГц
Метод сжатия : С потерями
Размер потока : 40,5 Мбайт (6%)
Выравнивание : Соединение по промежуткам
Продолжительность промежутка : 42 мс. (1,00 видеокадр)
Время предзагрузки промежутка : 504 мс.
Библиотека кодирования : LAME3.98r
Настройки программы : -m j -V 4 -q 2 -lowpass 17 -b 128



Скачать Улицы.Правосудия.Street.Justice.(01x02х01-44).(Дэвид.Уиннинг.и.др.).[1991-1993.боевик.DVDRip].[AVO.(Дольский)]+[Eng].torrent без регистрации
Золото ЗОЛОТАЯ РАЗДАЧА! СКАЧАННОЕ НЕ ЗАСЧИТЫВАЕТСЯ! Золото
Дата: Зарегистрирован   [ Тип: внутренний ] Как тут cкачать?
MAGNET ссылка
MAGNET ссылка


Скачать .torrent

130 KB

Статус: проверено DHT
Скачан: торрент - 108 раз, раздача полностью - 1 раз
Размер: 25,08 GB
Оценка:  - (Голосов: 0)
Поблагодарили: 0
Поделиться ссылкой на эту раздачу с друзьями:
В контактеFacebookОдноклассникиTwitterLivejournalМой МирLiveinternet
 

 
Показать сообщения:    


Вы не можете начинать темы
Вы не можете отвечать на сообщения
Вы не можете редактировать свои сообщения
Вы не можете удалять свои сообщения
Вы не можете голосовать в опросах
Вы не можете прикреплять файлы к сообщениям
Вы можете скачивать файлы