Loading...
Error

Скачать Битва Титанов / Clash of the Titans (Десмонд Дэвис) [1981, боевик, фэнтези, приключения, HDRip] [MVO] торрент без регистрации

 
Статистика раздачи
Размер:  1,46 GB   |    Скачан:  89 раз
Сидов:  1  [  0 KB/s  ]  
 
Автор Сообщение

Marsianka

[] 



Информация о фильме
Название: Битва Титанов
Оригинальное название: Clash of the Titans
Год выхода: 1981
Жанр: боевик, фэнтези, приключения
Режиссер: Десмонд Дэвис
В ролях: Лоуренс Оливье, Клер Блум, Мэгги Смит, Урсула Андресс, Джек Гвиллим, Сьюзэн Флитвуд, Пэт Роач, Гарри Хэмлин, Джуди Баукер, Бургесс Мередит
О фильме:
Персей — смертный сын Зевса, пытаясь спасти свою возлюбленную Андромеду от жестокого заклятия, сражается с чудовищами. К счастью, у Персея есть свои волшебные помощники: прекрасный крылатый конь и удивительно умная сова.
Но даже эти волшебные силы не всегда в силах помочь герою в борьбе с могущественными врагами и спасти свою любимую!


Ограничение по возрасту: 12+
Бюджет: $15 000 000
Сборы в США: $41 092 328
Страна: США
Студия: Metro-Goldwyn-Mayer (MGM), Peerford Ltd.
Продолжительность: 01:57:56
Перевод: Профессиональный (многоголосый, закадровый)
Файл
Кодек: XviD
Формат: AVI
Качество: HDRip
Видео: XviD; 704x400 (16:9); 1498 Kbps; 23,976 fps; 0,222 bpp
Звук: AC3; 192 Kbps; CBR; 2 ch
Общее
Полное имя : D:VideoBitva.Titanov.1981.avi
Формат : AVI
Формат/Информация : Audio Video Interleave
Размер файла : 1,46 Гбайт
Продолжительность : 1 ч. 57 м.
Общий поток : 1770 Кбит/сек
Программа кодирования : VirtualDubMod 1.5.10.2 (build 2540/release)
Библиотека кодирования : VirtualDubMod build 2540/release

Видео
Идентификатор : 0
Формат : MPEG-4 Visual
Профиль формата : Advanced Simple@L5
Параметр BVOP формата : 1
Параметр QPel формата : Нет
Параметр GMC формата : Без точки перехода
Параметр матрицы формата : Выборочная
Идентификатор кодека : XVID
Идентификатор кодека/Подсказка : XviD
Продолжительность : 1 ч. 57 м.
Битрейт : 1568 Кбит/сек
Ширина : 704 пикселя
Высота : 400 пикселей
Соотношение сторон : 16:9
Частота кадров : 23,976 кадра/сек
Цветовое пространство : YUV
Субдискретизация насыщенности : 4:2:0
Битовая глубина : 8 бит
Тип развёртки : Прогрессивная
Метод сжатия : С потерями
Бит/(Пиксели*Кадры) : 0.232
Размер потока : 1,29 Гбайт (89%)
Библиотека кодирования : XviD 1.2.1 (UTC 2008-12-04)

Аудио
Идентификатор : 1
Формат : AC-3
Формат/Информация : Audio Coding 3
Расширение режима : CM (complete main)
Параметр Endianness формата : Big
Идентификатор кодека : 2000
Продолжительность : 1 ч. 57 м.
Вид битрейта : Постоянный
Битрейт : 192 Кбит/сек
Каналы : 2 канала
Расположение каналов : Front: L R
Частота : 48,0 КГц
Битовая глубина : 16 бит
Метод сжатия : С потерями
Задержка видео : 1 с. 520 мс.
Размер потока : 162 Мбайт (11%)
Выравнивание : Разделение по промежуткам
Продолжительность промежутка : 42 мс. (1,00 видеокадр)
Время предзагрузки промежутка : 500 мс.



Скачать Битва.Титанов.Clash.of.the.Titans.(Десмонд.Дэвис).[1981.боевик.фэнтези.приключения.HDRip].[MVO].torrent без регистрации
Золото ЗОЛОТАЯ РАЗДАЧА! СКАЧАННОЕ НЕ ЗАСЧИТЫВАЕТСЯ! Золото
Дата: Зарегистрирован   [ Тип: внутренний ] Как тут cкачать?
MAGNET ссылка
MAGNET ссылка


Скачать .torrent

15 KB

Статус: проверено DHT
Скачан: торрент - 89 раз, раздача полностью - 11 раз
Размер: 1,46 GB
Оценка:  - (Голосов: 0)
Поблагодарили: 0
Поделиться ссылкой на эту раздачу с друзьями:
В контактеFacebookОдноклассникиTwitterLivejournalМой МирLiveinternet
 

 
Показать сообщения:    


Вы не можете начинать темы
Вы не можете отвечать на сообщения
Вы не можете редактировать свои сообщения
Вы не можете удалять свои сообщения
Вы не можете голосовать в опросах
Вы не можете прикреплять файлы к сообщениям
Вы можете скачивать файлы