Loading...
Error

Скачать Кремниевая долина / Силиконовая долина / Silicon Valley (сезон 01) (Майк Джадж, Алек Берг) [2015, комедия, BDRip] [720p] [MVO (Amedia)]+[DVO (Кубик в кубе)]+[Eng]+[Sub Rus, Eng] торрент без регистрации

 
Статистика раздачи
Размер:  15,19 GB   |    Скачан:  201 раз
Сидов:  1  [  0 KB/s  ]  
 
Автор Сообщение

МихаНЕзатор

[] 

Информация о сериале
Название: Кремниевая долина
Оригинальное название: Silicon Valley
Год выхода: 2014
Жанр: комедия
Авторы идеи: Майк Джадж /Mike Judge/, Джон Альтшулер /John Altschuler/, Дэйв Крински /Dave Krinsky/
Режиссеры: Майк Джадж /Mike Judge/, Алек Берг /Alec Berg/, Тришиа Брок /Tricia Brock/ и др.

В ролях: Томас Миддлдитч /Thomas Middleditch/, ТиДжей Миллер /T.J. Miller/, Джош Бренер /Josh Brener/, Мартин Старр /Martin Starr/, Кумэйл Нанджиани /Kumail Nanjiani/, Аманда Крю /Amanda Crew/, Зак Вудс /Zach Woods/, Кристофер Ивэн Уэлш /Christopher Evan Welch/, Мэтт Росс /Matt Ross/, Бен Фельдман /Ben Feldman/ и др.

О сериале: Жизнь в Силиконовой долине – жестокая борьба за место под калифорнийским солнцем. Каждый здесь мечтает стать новым Джобсом. Шестеро молодых айтишников пытаются придумать прорывный стартап, который принесет им славу и деньги. Но великие изобретатели беспомощны в повседневной жизни, а толковые прагматики не могут справиться со звездной болезнью. Создатель шоу Майк Джадж, автор «Бивиса и Баттхеда», знает, как превратить эти гиковские сложности в комедию.



Страна: США
Студии: 3 Arts Entertainment / Judgemental Films Inc.
Продолжительность: 8 x ~ 00:28:00
Перевод:
Профессиональный (двухголосый, закадровый) - Кубик в кубе
Профессиональный (многоголосый, закадровый) - Amedia

Релиз от: by messafan
Рип от EbP!

Файл
Кодек: H.264
Качество: BDRip 720p
Видео: 1280x720 at 23.976 fps, x264@L4.1, crf, ~7000-8500 kbps avg
Аудио#1: Russian: 48 kHz, AC3, 3/2 (L,C,R,l,r) + LFE ch, ~640.00 kbps avg |Двухголосый закадровый, Кубик в кубе|
Аудио#2: Russian: 48 kHz, AC3, 3/2 (L,C,R,l,r) + LFE ch, ~384.00 kbps avg |Многоголосый закадровый, Amedia|
Аудио#3: English: 48 kHz, AC3, 3/2 (L,C,R,l,r) + LFE ch, ~640.00 kbps avg |Оригинал|
Субтитры: Russian (Full - Amedia), English (Full, SDH)

АНОНСЫ ПОПУЛЯРНЫХ РАЗДАЧ


Торрент обновлён, добавлена 8-я серия!
General
Complete name : Silicon.Valley.S01E01.720p.BDRip.2xRus.Eng.CasStudio.mkv
Format : Matroska
Format version : Version 4 / Version 2
File size : 2.07 GiB
Duration : 29mn 21s
Overall bit rate : 10.1 Mbps
Movie name : Silicon Valley s01e01 (Minimum Viable Product) - release by messafan for CasStudio
Encoded date : UTC 2015-04-07 05:58:31
Writing application : mkvmerge v6.7.0 ('Back to the Ground') 64bit built on Jan 8 2014 15:10:52
Writing library : libebml v1.3.0 + libmatroska v1.4.1

Video
ID : 1
Format : AVC
Format/Info : Advanced Video Codec
Format profile : High@L4.1
Format settings, CABAC : Yes
Format settings, ReFrames : 9 frames
Codec ID : V_MPEG4/ISO/AVC
Duration : 29mn 21s
Bit rate : 8 218 Kbps
Width : 1 280 pixels
Height : 720 pixels
Display aspect ratio : 16:9
Frame rate mode : Constant
Frame rate : 23.976 fps
Color space : YUV
Chroma subsampling : 4:2:0
Bit depth : 8 bits
Scan type : Progressive
Bits/(Pixel*Frame) : 0.372
Stream size : 1.69 GiB (82%)
Title : Silicon Valley S01
Writing library : x264 core 146 r2538 121396c
Encoding settings : cabac=1 / ref=9 / deblock=1:-3:-3 / analyse=0x3:0x133 / me=umh / subme=10 / psy=1 / psy_rd=0.95:0.00 / mixed_ref=1 / me_range=16 / chroma_me=1 / trellis=2 / 8x8dct=1 / cqm=0 / deadzone=21,11 / fast_pskip=0 / chroma_qp_offset=-2 / threads=12 / lookahead_threads=2 / sliced_threads=0 / nr=0 / decimate=0 / interlaced=0 / bluray_compat=0 / constrained_intra=0 / bframes=9 / b_pyramid=2 / b_adapt=2 / b_bias=0 / direct=3 / weightb=1 / open_gop=0 / weightp=2 / keyint=250 / keyint_min=23 / scenecut=40 / intra_refresh=0 / rc=crf / mbtree=0 / crf=16.2 / qcomp=0.60 / qpmin=0 / qpmax=69 / qpstep=4 / ip_ratio=1.40 / pb_ratio=1.30 / aq=3:0.70 / zones=40556,42230,crf=21
Language : English
Default : Yes
Forced : No

Audio #1
ID : 2
Format : AC-3
Format/Info : Audio Coding 3
Mode extension : CM (complete main)
Format settings, Endianness : Big
Codec ID : A_AC3
Duration : 29mn 21s
Bit rate mode : Constant
Bit rate : 640 Kbps
Channel(s) : 6 channels
Channel positions : Front: L C R, Side: L R, LFE
Sampling rate : 48.0 KHz
Compression mode : Lossy
Stream size : 134 MiB (6%)
Title : KvK | AC3 5.1 @ 640Kbps
Language : Russian
Default : Yes
Forced : No

Audio #2
ID : 3
Format : AC-3
Format/Info : Audio Coding 3
Mode extension : CM (complete main)
Format settings, Endianness : Big
Codec ID : A_AC3
Duration : 29mn 21s
Bit rate mode : Constant
Bit rate : 384 Kbps
Channel(s) : 6 channels
Channel positions : Front: L C R, Side: L R, LFE
Sampling rate : 48.0 KHz
Compression mode : Lossy
Stream size : 80.6 MiB (4%)
Title : Amedia | AC3 5.1 @ 384Kbps
Language : Russian
Default : No
Forced : No

Audio #3
ID : 4
Format : AC-3
Format/Info : Audio Coding 3
Mode extension : CM (complete main)
Format settings, Endianness : Big
Codec ID : A_AC3
Duration : 29mn 21s
Bit rate mode : Constant
Bit rate : 640 Kbps
Channel(s) : 6 channels
Channel positions : Front: L C R, Side: L R, LFE
Sampling rate : 48.0 KHz
Compression mode : Lossy
Stream size : 134 MiB (6%)
Title : English | AC3 5.1 @ 640Kbps
Language : English
Default : No
Forced : No

Text #1
ID : 5
Format : UTF-8
Codec ID : S_TEXT/UTF8
Codec ID/Info : UTF-8 Plain Text
Title : Rus sub (Amedia)
Language : Russian
Default : No
Forced : No

Text #2
ID : 6
Format : UTF-8
Codec ID : S_TEXT/UTF8
Codec ID/Info : UTF-8 Plain Text
Title : Full
Language : English
Default : No
Forced : No

Text #3
ID : 7
Format : UTF-8
Codec ID : S_TEXT/UTF8
Codec ID/Info : UTF-8 Plain Text
Title : SDH
Language : English
Default : No
Forced : No

Menu
00:00:00.000 : en:00:00:00.000
00:03:02.432 : en:00:03:02.432
00:08:24.838 : en:00:08:24.838
00:15:13.329 : en:00:15:13.329
00:20:36.110 : en:00:20:36.110
00:28:11.523 : en:00:28:11.523
01. Minimum Viable Product / Минимально жизнеспособный продукт
02. The Cap Table / Шапка таблицы
03. Articles of Incorporation / Устав
04. Fiduciary Duties / Обязательства по доверенности
05. Signaling Risk / Сигнализирование о риске
06. Third Party Insourcing / Самостоятельное производство
07. Proof of Concept / Эксперимент
08. Optimal Tip-To-Tip Efficiency / Оптимальная эффективность
ЦитатаКто-то писал:
Сохранены оригинальные главы как на Blu-ray.
Дорожка №1 содержит умеренное количество ненормативной лексики.
Дорожка №1 получена наложением чистого голоса на центр декодированного оригинального DTS-HD (благодарим за голоса ЛП).
За запись Amedia большое спасибо BS666.
За помощь с релизом спасибо Serdg71.



Скачать Кремниевая.долина.Силиконовая.долина.Silicon.Valley.(сезон.01).(Майк.Джадж.Алек.Берг).[2015.комедия.BDRip].[720p].[MVO.(Amedia)]+[DVO.(Кубик.в.кубе)]+[Eng]+[Sub.Rus.Eng].torrent без регистрации
Золото ЗОЛОТАЯ РАЗДАЧА! СКАЧАННОЕ НЕ ЗАСЧИТЫВАЕТСЯ! Золото
Дата: Зарегистрирован   [ Тип: внутренний ] Как тут cкачать?
MAGNET ссылка
MAGNET ссылка


Скачать .torrent

153 KB

Статус: проверено DHT
Скачан: торрент - 201 раз, раздача полностью - 23 раз
Размер: 15,19 GB
Оценка:  - (Голосов: 0)
Поблагодарили: 0
Поделиться ссылкой на эту раздачу с друзьями:
В контактеFacebookОдноклассникиTwitterLivejournalМой МирLiveinternet
 

 
Показать сообщения:    


Вы не можете начинать темы
Вы не можете отвечать на сообщения
Вы не можете редактировать свои сообщения
Вы не можете удалять свои сообщения
Вы не можете голосовать в опросах
Вы не можете прикреплять файлы к сообщениям
Вы можете скачивать файлы