Loading...
Error

Скачать Туз в рукаве / Ace in the Hole (Билли Уайлдер) [1951, фильм-нуар, драма, BDRip-AVC] [MVO]+[Оригинал]+[Sub]x2 торрент без регистрации

 
Статистика раздачи
Размер:  3,8 GB   |    Скачан:  121 раз
Сидов:  1  [  0 KB/s  ]  
 
Автор Сообщение

Marsianka

[] 

Туз в рукаве / Ace in the Hole (1951) BDRip-AVC
от
HQCLUB



Информация о фильме:
Название: Туз в рукаве
Оригинальное название: Ace in the Hole
Год выхода: 1951
Жанр: фильм-нуар, драма
Режиссер: Билли Уайлдер / Billy Wilder
В ролях: Кирк Дуглас, Джен Стерлинг, Роберт Артур, Портер Холл, Фрэнк Кэди, Ричард Бенедикт, Рэй Тил, Льюис Мартин, Джон Беркс, Фрэнсис Домингез

О фильме: Журналист Чарльз Тэйтум, работавший ранее на крупную нью-йоркскую газету, вынужден из-за своего пьянства сменить место работы и перебирается в глухую провинцию. Он надеется дать новый старт своей карьере, однако, в течение целого года не может найти достойную тему. Однажды он узнает, что неподалеку некий Лео Миноза застрял в старой индейской шахте и не может оттуда выбраться. Чарльз решает, что это именно то, что он так долго искал, и начинает раздувать из этой истории большую сенсацию…



Релиз от -
Автор рипа: Elheym

Выпущено: США, Paramount Pictures
Продолжительность: 01:51:14
Профессиональный (многоголосый, закадровый) TK "CTC"
Оригинальная аудиодорожка: английская
Субтитры: русские (полные), английские (полные, полные SDH, полные SDH цветные)
Главы: присутствуют, сохранены оригинальные
Файл:
Формат: MKV
Качество: BDRip-AVC (источник: / Blu-ray Disc [ACE_ITH_BLUEBIRD] / 1080p)
Видео: 792x578 (1.37:1), 23.976 fps, MPEG-4 AVC, ~4500 kbps avg, 0.410 bit/pixel
Аудио #1: 48 kHz, AC3 Dolby Digital, 1/0 (C) ch, ~192 kbps avg (MVO.STS)
Аудио #2: 48 kHz, AC3 Dolby Digital, 1/0 (C) ch, ~192 kbps avg (ENG)
Размер: 3.80 GB
Сэмпл: скачать

Уникальный идентификатор : 182779356211402971223184734018980786664 (0x8982060658A45A7EA79B0887CE43B1E8)
Полное имя : Ace.in.the.Hole.1951.DUAL.BDRip-AVC.x264.AC3.-HQCLUB.mkv
Формат : Matroska
Версия формата : Version 2
Размер файла : 3,80 Гбайт
Продолжительность : 1 ч. 51 м.
Общий поток : 4887 Кбит/сек
Дата кодирования : UTC 2015-04-29 16:59:58
Программа кодирования : mkvmerge v5.2.0 ('I can't explain') built on Dec 18 2011 18:12:03
Библиотека кодирования : libebml v1.2.3 + libmatroska v1.3.0
Attachements : Cover.jpg

Видео
Идентификатор : 1
Формат : AVC
Формат/Информация : Advanced Video Codec
Профиль формата : High@L4.0
Параметр CABAC формата : Да
Параметр ReFrames формата : 15 кадров
Идентификатор кодека : V_MPEG4/ISO/AVC
Продолжительность : 1 ч. 51 м.
Битрейт : 4500 Кбит/сек
Ширина : 792 пикселя
Высота : 578 пикселей
Соотношение сторон : 1,370
Режим частоты кадров : Постоянный
Частота кадров : 23,976 кадра/сек
Цветовое пространство : YUV
Субдискретизация насыщенности : 4:2:0
Битовая глубина : 8 бит
Тип развёртки : Прогрессивная
Бит/(Пиксели*Кадры) : 0.410
Размер потока : 3,42 Гбайт (90%)
Заголовок : Туз в рукаве / Ace in the Hole (1951) BDRip-AVC by HQCLUB [Elheym]
Библиотека кодирования : x264 core 142 r2431+42 c69a006 tMod [8-bit@all X86_64]
Настройки программы : cabac=1 / ref=15 / deblock=1:-3:-2 / analyse=0x3:0x133 / me=umh / subme=11 / psy=1 / fade_compensate=0.00 / psy_rd=1.15:0.00 / mixed_ref=1 / me_range=32 / chroma_me=1 / trellis=2 / 8x8dct=1 / cqm=0 / deadzone=21,11 / fast_pskip=0 / chroma_qp_offset=-2 / threads=6 / lookahead_threads=2 / sliced_threads=0 / nr=0 / decimate=0 / interlaced=0 / bluray_compat=0 / constrained_intra=0 / fgo=5 / bframes=13 / b_pyramid=2 / b_adapt=2 / b_bias=0 / direct=3 / weightb=1 / open_gop=0 / weightp=2 / keyint=230 / keyint_min=23 / scenecut=40 / intra_refresh=0 / rc_lookahead=80 / rc=2pass / mbtree=0 / bitrate=4500 / ratetol=1.0 / qcomp=0.80 / qpmin=0:0:0 / qpmax=69:69:69 / qpstep=4 / cplxblur=20.0 / qblur=0.5 / vbv_maxrate=20000 / vbv_bufsize=25000 / nal_hrd=none / filler=0 / ip_ratio=1.40 / pb_ratio=1.19 / aq=2:0.90 / aq-sensitivity=10.00 / aq-factor=1.00:1.00:1.00 / aq2=0 / aq3=0
Язык : English
Default : Да
Forced : Нет

Аудио #1
Идентификатор : 2
Формат : AC-3
Формат/Информация : Audio Coding 3
Расширение режима : CM (complete main)
Параметр Endianness формата : Big
Идентификатор кодека : A_AC3
Продолжительность : 1 ч. 51 м.
Вид битрейта : Постоянный
Битрейт : 192 Кбит/сек
Каналы : 1 канал
Расположение каналов : Front: C
Частота : 48,0 КГц
Битовая глубина : 16 бит
Метод сжатия : С потерями
Размер потока : 153 Мбайт (4%)
Заголовок : АС3 1.0 @ 192 kbps - MVO, STS
Язык : Russian
Default : Нет
Forced : Нет

Аудио #2
Идентификатор : 3
Формат : AC-3
Формат/Информация : Audio Coding 3
Расширение режима : CM (complete main)
Параметр Endianness формата : Big
Идентификатор кодека : A_AC3
Продолжительность : 1 ч. 51 м.
Вид битрейта : Постоянный
Битрейт : 192 Кбит/сек
Каналы : 1 канал
Расположение каналов : Front: C
Частота : 48,0 КГц
Битовая глубина : 16 бит
Метод сжатия : С потерями
Размер потока : 153 Мбайт (4%)
Заголовок : АС3 1.0 @ 192 kbps - Original
Язык : English
Default : Нет
Forced : Нет

Текст #1
Идентификатор : 4
Формат : UTF-8
Идентификатор кодека : S_TEXT/UTF8
Идентификатор кодека/Информация : UTF-8 Plain Text
Заголовок : Full
Язык : Russian
Default : Нет
Forced : Нет

Текст #2
Идентификатор : 5
Формат : UTF-8
Идентификатор кодека : S_TEXT/UTF8
Идентификатор кодека/Информация : UTF-8 Plain Text
Заголовок : Full
Язык : English
Default : Нет
Forced : Нет

Текст #3
Идентификатор : 6
Формат : UTF-8
Идентификатор кодека : S_TEXT/UTF8
Идентификатор кодека/Информация : UTF-8 Plain Text
Заголовок : Full SDH
Язык : English
Default : Нет
Forced : Нет

Текст #4
Идентификатор : 7
Формат : UTF-8
Идентификатор кодека : S_TEXT/UTF8
Идентификатор кодека/Информация : UTF-8 Plain Text
Заголовок : Full SDH Colored
Язык : English
Default : Нет
Forced : Нет

Меню
00:00:00.000 : :Chapter 01
00:04:07.622 : :Chapter 02
00:07:37.456 : :Chapter 03
00:12:08.477 : :Chapter 04
00:16:17.101 : :Chapter 05
00:23:24.945 : :Chapter 06
00:30:37.293 : :Chapter 07
00:35:14.403 : :Chapter 08
00:39:28.824 : :Chapter 09
00:43:15.175 : :Chapter 10
00:46:44.676 : :Chapter 11
00:52:42.033 : :Chapter 12
00:55:00.505 : :Chapter 13
01:00:01.931 : :Chapter 14
01:03:25.384 : :Chapter 15
01:05:53.240 : :Chapter 16
01:10:21.926 : :Chapter 17
01:14:47.149 : :Chapter 18
01:17:12.878 : :Chapter 19
01:20:26.905 : :Chapter 20
01:25:45.974 : :Chapter 21
01:29:23.107 : :Chapter 22
01:34:46.055 : :Chapter 23
01:39:55.531 : :Chapter 24
01:44:07.282 : :Chapter 25
01:48:50.106 : :Chapter 26
01:51:14.668 : :Chapter 27

x264 [info]: frame I:856 Avg QP:18.22 size: 82023
x264 [info]: frame P:30002 Avg QP:20.91 size: 34797
x264 [info]: frame B:129180 Avg QP:21.87 size: 20441

x264 [info]: consecutive B-frames: 0.8% 0.8% 3.2% 15.1% 15.0% 51.5% 5.6% 2.5% 1.8% 1.3% 0.8% 1.0% 0.3% 0.3%

x264 [info]: ref P L0: 34.3% 13.6% 13.6% 7.3% 5.7% 4.8% 4.2% 2.5% 2.3% 2.2% 2.0% 1.9% 1.8% 1.7% 1.7% 0.5%
x264 [info]: ref B L0: 61.8% 12.1% 6.7% 3.9% 3.1% 2.7% 2.3% 1.5% 1.4% 1.3% 1.2% 1.1% 0.7% 0.3%
x264 [info]: ref B L1: 90.9% 9.1%



Скачать Туз.в.рукаве.Ace.in.the.Hole.(Билли.Уайлдер).[1951.фильм-нуар.драма.BDRip-AVC].[MVO]+[Оригинал]+[Sub]x2.torrent без регистрации
Золото ЗОЛОТАЯ РАЗДАЧА! СКАЧАННОЕ НЕ ЗАСЧИТЫВАЕТСЯ! Золото
Дата: Зарегистрирован   [ Тип: внутренний ] Как тут cкачать?
MAGNET ссылка
MAGNET ссылка


Скачать .torrent

20 KB

Статус: проверено DHT
Скачан: торрент - 121 раз, раздача полностью - 0 раз
Размер: 3,8 GB
Оценка:  - (Голосов: 0)
Поблагодарили: 1
Поделиться ссылкой на эту раздачу с друзьями:
В контактеFacebookОдноклассникиTwitterLivejournalМой МирLiveinternet
 

 
Показать сообщения:    


Вы не можете начинать темы
Вы не можете отвечать на сообщения
Вы не можете редактировать свои сообщения
Вы не можете удалять свои сообщения
Вы не можете голосовать в опросах
Вы не можете прикреплять файлы к сообщениям
Вы можете скачивать файлы