Loading...
Error

Скачать Малефисента / Maleficent (Роберт Стромберг) [2014, Фэнтези, семейный, мелодрама, приключения, BDRip] [1080p] [DUB] [R.G. GoldenShara] торрент без регистрации

Страницы:  1, 2  След.

Статистика раздачи
Размер:  4,36 GB   |    Скачан:  110 раз

Полного источника не было: 2 часа 35 минут

 
 
 
Автор Сообщение

oblivion83

[] 


Малефисента / Maleficent


Год выпуска: 2014
Выпущено: США, Великобритания
Жанр: Фэнтези, семейный, мелодрама, приключения
Продолжительность: 01:37:28
Перевод: Профессиональный (полное дублирование)
Субтитры: Русские (Forced, Full), Английские (Full)

Режиссер: Роберт Стромберг

В ролях: Анджелина Джоли, Эль Фаннинг, Шарлто Копли, Сэм Райли, Изобель Моллой, Лесли Мэнвилл, Имелда Стонтон, Джуно Темпл, Брентон Туэйтс, Кеннет Крэнэм

Описание: Юная волшебница Малефисента вела уединенную жизнь в зачарованном лесу, окруженная сказочными существами, но однажды все изменилось… В её мир вторглись люди, которые принесли с собой разрушение и хаос, и Малефисенте пришлось встать на защиту своих подданных, призвав на помощь могущественные тёмные силы.





Доп. информация: Рип от Bullit

Качество: BDRip 1080p
Формат: MKV
Видео кодек: H.264
Аудио кодек: AC3
Видео: 1920x800 (2.40:1) 5760 Kbps 23.976 fps
Аудио: Русский (AC-3, 6ch, 640kbps)

Общее
Уникальный идентификатор : 238507520502783833274686970300269391130 (0xB36EE0A869DC89D58E6B4CBA1D74ED1A)
Формат : Matroska
Версия формата : Version 4 / Version 2
Размер файла : 4,36 Гбайт
Продолжительность : 1 ч. 37 м.
Общий поток : 6401 Кбит/сек
Название фильма : Малефисента (2014) - Maleficent BDRip 1080p by R.G. GoldenShara
Дата кодирования : UTC 2016-12-11 18:34:03
Программа кодирования : mkvmerge v9.6.0 ('Slave To Your Mind') 64bit
Библиотека кодирования : libebml v1.3.4 + libmatroska v1.4.5

Видео
Идентификатор : 1
Формат : AVC
Формат/Информация : Advanced Video Codec
Профиль формата : High@L4.1
Параметр CABAC формата : Да
Параметр ReFrames формата : 4 кадра
Идентификатор кодека : V_MPEG4/ISO/AVC
Продолжительность : 1 ч. 37 м.
Битрейт : 5760 Кбит/сек
Ширина : 1920 пикселей
Высота : 800 пикселей
Соотношение сторон : 2,40:1
Режим частоты кадров : Постоянный
Частота кадров : 23,976 (24000/1001) кадра/сек
Цветовое пространство : YUV
Субдискретизация насыщенности : 4:2:0
Битовая глубина : 8 бит
Тип развёртки : Прогрессивная
Бит/(Пиксели*Кадры) : 0.156
Размер потока : 3,92 Гбайт (90%)
Заголовок : Малефисента (2014) — Maleficent
Библиотека кодирования : x264 core 142 r2431 ac76440
Настройки программы : cabac=1 / ref=4 / deblock=1:-3:-3 / analyse=0x3:0x133 / me=umh / subme=11 / psy=1 / psy_rd=1.00:0.00 / mixed_ref=1 / me_range=32 / chroma_me=1 / trellis=2 / 8x8dct=1 / cqm=0 / deadzone=21,11 / fast_pskip=0 / chroma_qp_offset=-4 / threads=12 / lookahead_threads=2 / sliced_threads=0 / nr=0 / decimate=0 / interlaced=0 / bluray_compat=0 / constrained_intra=0 / bframes=8 / b_pyramid=2 / b_adapt=2 / b_bias=0 / direct=3 / weightb=1 / open_gop=0 / weightp=2 / keyint=230 / keyint_min=22 / scenecut=40 / intra_refresh=0 / rc_lookahead=40 / rc=2pass / mbtree=1 / bitrate=5760 / ratetol=1.0 / qcomp=0.60 / qpmin=0 / qpmax=69 / qpstep=4 / cplxblur=20.0 / qblur=0.5 / vbv_maxrate=62500 / vbv_bufsize=78125 / nal_hrd=none / filler=0 / ip_ratio=1.40 / aq=1:1.00
Язык : English
Default : Да
Forced : Нет

Аудио
Идентификатор : 2
Формат : AC-3
Формат/Информация : Audio Coding 3
Расширение режима : CM (complete main)
Параметр Endianness формата : Big
Идентификатор кодека : A_AC3
Продолжительность : 1 ч. 37 м.
Вид битрейта : Постоянный
Битрейт : 640 Кбит/сек
Каналы : 6 каналов
Расположение каналов : Front: L C R, Side: L R, LFE
Частота : 48,0 КГц
Частота кадров : 31,250 кадров/сек (1536 spf)
Битовая глубина : 16 бит
Метод сжатия : С потерями
Размер потока : 446 Мбайт (10%)
Заголовок : Дубляж (Лицензия BD CEE)
Язык : Russian
Default : Да
Forced : Нет

Текст #1
Идентификатор : 3
Формат : UTF-8
Идентификатор кодека : S_TEXT/UTF8
Идентификатор кодека/Информация : UTF-8 Plain Text
Продолжительность : 1 м. 5 с.
Битрейт : 1 бит/сек
Count of elements : 1
Размер потока : 16,0 байт (0%)
Заголовок : Forced
Язык : Russian
Default : Да
Forced : Нет

Текст #2
Идентификатор : 4
Формат : UTF-8
Идентификатор кодека : S_TEXT/UTF8
Идентификатор кодека/Информация : UTF-8 Plain Text
Продолжительность : 1 ч. 29 м.
Битрейт : 48 бит/сек
Count of elements : 737
Размер потока : 31,7 Кбайт (0%)
Заголовок : Full
Язык : Russian
Default : Нет
Forced : Нет

Текст #3
Идентификатор : 5
Формат : UTF-8
Идентификатор кодека : S_TEXT/UTF8
Идентификатор кодека/Информация : UTF-8 Plain Text
Продолжительность : 1 ч. 30 м.
Битрейт : 37 бит/сек
Count of elements : 1038
Размер потока : 24,8 Кбайт (0%)
Заголовок : Full
Язык : English
Default : Нет
Forced : Нет

Меню
00:00:00.000 : en:(01)00:00:00:000
00:03:00.597 : en:(02)00:03:00:597
00:08:10.948 : en:(03)00:08:10:948
00:14:00.756 : en:(04)00:14:00:756
00:19:10.607 : en:(05)00:19:10:607
00:25:59.057 : en:(06)00:25:59:057
00:33:09.737 : en:(07)00:33:09:737
00:38:30.808 : en:(08)00:38:30:808
00:43:21.140 : en:(09)00:43:21:140
00:46:56.104 : en:(10)00:46:56:104
00:51:11.943 : en:(11)00:51:11:943
00:54:18.797 : en:(12)00:54:18:797
00:58:37.722 : en:(13)00:58:37:722
01:01:58.047 : en:(14)01:01:58:047
01:05:09.989 : en:(15)01:05:09:989
01:09:56.775 : en:(16)01:09:56:775
01:15:40.619 : en:(17)01:15:40:619
01:17:43.659 : en:(18)01:17:43:659
01:25:44.931 : en:(19)01:25:44:931
01:28:38.646 : en:(20)01:28:38:646
01:37:27.842 : en:(21)01:37:27:842





Скачать Малефисента.Maleficent.(Роберт.Стромберг).[2014.Фэнтези.семейный.мелодрама.приключения.BDRip].[1080p].[DUB].[R.G.GoldenShara].torrent без регистрации
Золото ЗОЛОТАЯ РАЗДАЧА! СКАЧАННОЕ НЕ ЗАСЧИТЫВАЕТСЯ! Золото
Дата: Зарегистрирован   [ Тип: внутренний ] Как тут cкачать?
MAGNET ссылка
MAGNET ссылка


Скачать .torrent

11 KB

Статус: проверено
Скачан: торрент - 110 раз, раздача полностью - 220 раз
Размер: 4,36 GB
Оценка:  5 (Голосов: 3)
Поблагодарили: 10
Поделиться ссылкой на эту раздачу с друзьями:
В контактеFacebookОдноклассникиTwitterLivejournalМой МирLiveinternet
 

 

sobmaster

[] 

oblivion83

Интересно, а почему тип внешний - ты ещё куда-то залил?
 

oblivion83

[] 

sobmaster
честно не знаю,раздаю с ноута,моя первая раздача... ah
 

Spartak911

[] 

oblivion83
Может легче скидывать на Яндекс-диск фильмы, а то так еще несколько дней тянуть будем? ad
 

oblivion83

[] 

Spartak911
я его туда так же несколько дней буду кидать ab
 

LORDKILL

[] 

5 личеров, дед, бабка, внучка, жучка, мурка и ждём мышку, чтобы вытянуть! ag
 

Spartak911

[] 

oblivion83 писал(а):

я его туда так же несколько дней буду кидать
Думаешь или пробовал?
 

Spartak911

[] 

LORDKILL писал(а):

5 личеров, дед, бабка, внучка, жучка, мурка и ждём мышку, чтобы вытянуть!
ag
 

LORDKILL

[] 

Потерпите, я скачаю, переоформлю и буду раздавать!
 

oblivion83

[] 

Spartak911 писал(а):

oblivion83 писал(а):

я его туда так же несколько дней буду кидать
Думаешь или пробовал?
у меня отдача 100 кб/с
 

Spartak911

[] 

oblivion83
Ура, скачалось!!! Спасибо!!! az
 

oblivion83

[] 

Spartak911
az
 

LORDKILL

[] 

Сколько сидов, вот бы всегда так! ab
 

SanCinema

[] 

LORDKILL писал(а):

5 личеров, дед, бабка, внучка, жучка, мурка и ждём мышку, чтобы вытянуть! ag
ag
 

SanCinema

[] 

Фильм дествительно заслуживат внимания! Моя оценка 4/5
 
Показать сообщения:    


Вы не можете начинать темы
Вы не можете отвечать на сообщения
Вы не можете редактировать свои сообщения
Вы не можете удалять свои сообщения
Вы не можете голосовать в опросах
Вы не можете прикреплять файлы к сообщениям
Вы можете скачивать файлы