Loading...
Error

Скачать Голая добыча / The Naked Prey (Корнел Уайлд) [1965, триллер, драма, приключения, HDTVRip] [MVO] торрент без регистрации

 
Статистика раздачи
Размер:  1,46 GB   |    Скачан:  98 раз
Сидов:  1  [  0 KB/s  ]  
 
Автор Сообщение

Marsianka

[] 

Название: Голая добыча
Оригинальное название: The Naked Prey
Год выпуска: 1965
Жанр: триллер, драма, приключения
Выпущено: ЮАР, США, Sven Persson Films, Theodora Productions
Режиссер: Корнел Уайлд
В ролях: Корнел Уайлд, Герт Ван дер Берг, Кен Гампу, Белла Рэндлс, Моррисон Гампу, Джон Маркус, Эрик Мканвана, Санди Нкомо, Ричард Нашива

О фильме: Находясь на африканском сафари, группа охотников встречает представителей туземного племени. Отказавшись сделать подарок местным, охотники подписывают себе смертный приговор. Последнему оставшемуся в живых вождь дарует «шанс льва» — без одежды и без оружия под палящим солнцем он должен спастись от охотящихся на него аборигенов.



Качество: HDTVRip исходник (HDTV 1080i)
Видео: XviD, 2091 Кбит/с, 720x304
Аудио: Русский, AC3, 2 ch, 192 Кбит/с
Продолжительность: 01:31:22
Перевод: Профессиональный (многоголосый)

Спасибо за предоставленный исходник 1234plz

General
Complete name : G:The Naked Prey 1965 HDTVRip 1.46.avi
Format : AVI
Format/Info : Audio Video Interleave
File size : 1.46 GiB
Duration : 1h 31mn
Overall bit rate : 2 293 Kbps
Writing application : VirtualDubModRus 1.5.10.2 (build 2542/release)
Writing library : VirtualDubMod build 2542/release

Video
ID : 0
Format : MPEG-4 Visual
Format profile : Advanced Simple@L5
Format settings, BVOP : 2
Format settings, QPel : No
Format settings, GMC : No warppoints
Format settings, Matrix : Default (H.263)
Codec ID : XVID
Codec ID/Hint : XviD
Duration : 1h 31mn
Bit rate : 2 091 Kbps
Width : 720 pixels
Height : 304 pixels
Display aspect ratio : 2.35:1
Frame rate : 25.000 fps
Color space : YUV
Chroma subsampling : 4:2:0
Bit depth : 8 bits
Scan type : Progressive
Compression mode : Lossy
Bits/(Pixel*Frame) : 0.382
Stream size : 1.33 GiB (91%)
Writing library : XviD 57

Audio
ID : 1
Format : AC-3
Format/Info : Audio Coding 3
Mode extension : CM (complete main)
Format settings, Endianness : Big
Codec ID : 2000
Duration : 1h 31mn
Bit rate mode : Constant
Bit rate : 192 Kbps
Channel(s) : 2 channels
Channel positions : Front: L R
Sampling rate : 48.0 KHz
Bit depth : 16 bits
Compression mode : Lossy
Stream size : 125 MiB (8%)
Alignment : Split accross interleaves
Interleave, duration : 40 ms (1.00 video frame)
Interleave, preload duration : 500 ms
Релиз от:



Скачать Голая.добыча.The.Naked.Prey.(Корнел.Уайлд).[1965.триллер.драма.приключения.HDTVRip].[MVO].torrent без регистрации
Золото ЗОЛОТАЯ РАЗДАЧА! СКАЧАННОЕ НЕ ЗАСЧИТЫВАЕТСЯ! Золото
Дата: Зарегистрирован   [ Тип: внутренний ] Как тут cкачать?
MAGNET ссылка
MAGNET ссылка


Скачать .torrent

15 KB

Статус: проверено DHT
Скачан: торрент - 98 раз, раздача полностью - 10 раз
Размер: 1,46 GB
Оценка:  - (Голосов: 0)
Поблагодарили: 1
Поделиться ссылкой на эту раздачу с друзьями:
В контактеFacebookОдноклассникиTwitterLivejournalМой МирLiveinternet
 

 
Показать сообщения:    


Вы не можете начинать темы
Вы не можете отвечать на сообщения
Вы не можете редактировать свои сообщения
Вы не можете удалять свои сообщения
Вы не можете голосовать в опросах
Вы не можете прикреплять файлы к сообщениям
Вы можете скачивать файлы