Loading...
Error

Скачать Повреждение мозга / Brain Damage (Фрэнк Хененлоттер) [1988 г., ужасы, комедия, DVDRip-AVC] 2х[AVO (Визгунов, Логинофф)] торрент без регистрации

 
Статистика раздачи
Размер:  1,46 GB   |    Скачан:  123 раза
Сидов:  1  [  0 KB/s  ]  
 
Автор Сообщение

durik

[] 

Повреждение мозга / Brain Damage

Информация о фильме
Название: Повреждение мозга
Оригинальное название: Brain Damage
Год выхода: 1988
Жанр: ужасы, комедия
Режиссер: Фрэнк Хененлоттер
В ролях: Рик Хёрст, Гордон МакДональд, Дженнифер Лоури, Тео Барнс, Люсиль Сен-Петер, Вики Дарнелл, Джозеф Гонзалез, Брэдли Родс, Майкл Бишоп, Беверли Боннер

О фильме:
Молодой парень Брайан просыпается однажды утром, ему явно нездоровится — очень хочется спать, кружится голова, а вскоре и вообще начались откровенные глюки. Немножечко придя в себя, Брайан решил выяснить причину своего состояния и… познакомился с маленьким паразитом, который тут же пообещал ему неземные наслаждения, если парень «положит его себе на шею».
«Почему бы и нет?» — подумалось Брайану, и вскоре он испытал такой кайф, о котором не мог даже и мечтать. Но за все надо платить, не так ли? Хочешь новой порции живительного сока — корми Элмера (так звали забавного паразита), а кушает он только мозги… Так и началось недолгое совместное сожительство охочего до наркотического дурмана Брайана и хитрого паразита Элмера, во время которого город стал наводняться трупами….



Страна: США
Студия: Palisades Partners
Продолжительность: 01:25:43
Перевод:
1. Авторский (одноголосый закадровый) [Визгунов]
2. Авторский (одноголосый закадровый) [Логинофф]

Файл
Кодек: AVC
Качество: DVDRip-AVC
Видео: 720x400, 1857 kbps, 23,976 fps, 0,269 Bits/(Pixel*Frame)
Звук:
1. AC3, 48 kHz, 2 ch, 192 kbps - Визгунов
2. AC3, 48 kHz, 2 ch, 192 kbps - Логинофф
3. AC3, 48 kHz, 2 ch, 192 kbps - Original (ENG)
Субтитры: Нет
General
Unique ID : 238461500373254554448738072093890565962 (0xB36603B0B786BD68ACC99D2C2A39D74A)
Complete name : I:Brain.Damage.1988.Rus.Eng.DVDRip-AVC_by_Bathory.mkv
Format : Matroska
Format version : Version 2
File size : 1.46 GiB
Duration : 1h 25mn
Overall bit rate : 2 435 Kbps
Encoded date : UTC 2015-05-02 16:32:25
Writing application : mkvmerge v7.8.0 ('River Man') 32bit built on Mar 27 2015 16:18:02
Writing library : libebml v1.3.1 + libmatroska v1.4.2
DURATION : 01:25:43.072000000
NUMBER_OF_FRAMES : 160721
NUMBER_OF_BYTES : 123433728
_STATISTICS_WRITING_APP : mkvmerge v7.8.0 ('River Man') 32bit built on Mar 27 2015 16:18:02
_STATISTICS_WRITING_DATE_UTC : 2015-05-02 16:32:25
_STATISTICS_TAGS : BPS DURATION NUMBER_OF_FRAMES NUMBER_OF_BYTES

Video
ID : 1
Format : AVC
Format/Info : Advanced Video Codec
Format profile : High@L4.1
Format settings, CABAC : Yes
Format settings, ReFrames : 12 frames
Codec ID : V_MPEG4/ISO/AVC
Duration : 1h 25mn
Bit rate : 1 857 Kbps
Width : 720 pixels
Height : 400 pixels
Display aspect ratio : 16:9
Frame rate mode : Constant
Frame rate : 23.976 fps
Color space : YUV
Chroma subsampling : 4:2:0
Bit depth : 8 bits
Scan type : Progressive
Bits/(Pixel*Frame) : 0.269
Stream size : 1.08 GiB (74%)
Writing library : x264 core 146 r2538 121396c
Encoding settings : cabac=1 / ref=12 / deblock=1:-2:-2 / analyse=0x3:0x133 / me=umh / subme=11 / psy=1 / psy_rd=1.15:0.15 / mixed_ref=1 / me_range=48 / chroma_me=1 / trellis=2 / 8x8dct=1 / cqm=0 / deadzone=21,11 / fast_pskip=0 / chroma_qp_offset=-3 / threads=12 / lookahead_threads=3 / sliced_threads=0 / nr=0 / decimate=1 / interlaced=0 / bluray_compat=0 / constrained_intra=0 / bframes=16 / b_pyramid=2 / b_adapt=2 / b_bias=0 / direct=3 / weightb=1 / open_gop=0 / weightp=2 / keyint=240 / keyint_min=23 / scenecut=40 / intra_refresh=0 / rc_lookahead=60 / rc=2pass / mbtree=1 / bitrate=1857 / ratetol=1.0 / qcomp=0.60 / qpmin=0 / qpmax=69 / qpstep=4 / cplxblur=20.0 / qblur=0.5 / vbv_maxrate=62500 / vbv_bufsize=78125 / nal_hrd=none / filler=0 / ip_ratio=1.40 / aq=1:1.00
Default : Yes
Forced : No

Audio #1
ID : 2
Format : AC-3
Format/Info : Audio Coding 3
Mode extension : CM (complete main)
Format settings, Endianness : Big
Codec ID : A_AC3
Duration : 1h 25mn
Bit rate mode : Constant
Bit rate : 192 Kbps
Channel(s) : 2 channels
Channel positions : Front: L R
Sampling rate : 48.0 KHz
Bit depth : 16 bits
Compression mode : Lossy
Stream size : 118 MiB (8%)
Default : Yes
Forced : No

Audio #2
ID : 3
Format : AC-3
Format/Info : Audio Coding 3
Mode extension : CM (complete main)
Format settings, Endianness : Big
Codec ID : A_AC3
Duration : 1h 25mn
Bit rate mode : Constant
Bit rate : 192 Kbps
Channel(s) : 2 channels
Channel positions : Front: L R
Sampling rate : 48.0 KHz
Bit depth : 16 bits
Compression mode : Lossy
Stream size : 118 MiB (8%)
Default : No
Forced : No

Audio #3
ID : 4
Format : AC-3
Format/Info : Audio Coding 3
Mode extension : CM (complete main)
Format settings, Endianness : Big
Codec ID : A_AC3
Duration : 1h 25mn
Bit rate mode : Constant
Bit rate : 192 Kbps
Channel(s) : 2 channels
Channel positions : Front: L R
Sampling rate : 48.0 KHz
Bit depth : 16 bits
Compression mode : Lossy
Stream size : 118 MiB (8%)
Default : No
Forced : No
Релиз от:

Автор рипа: Bathory



Скачать Повреждение.мозга.Brain.Damage.(Фрэнк.Хененлоттер).[1988.г.ужасы.комедия.DVDRip-AVC].2х[AVO.(Визгунов.Логинофф)].torrent без регистрации
Золото ЗОЛОТАЯ РАЗДАЧА! СКАЧАННОЕ НЕ ЗАСЧИТЫВАЕТСЯ! Золото
Дата: Зарегистрирован   [ Тип: внутренний ] Как тут cкачать?
MAGNET ссылка
MAGNET ссылка


Скачать .torrent

15 KB

Статус: проверено DHT
Скачан: торрент - 123 раз, раздача полностью - 14 раз
Размер: 1,46 GB
Оценка:  - (Голосов: 0)
Поблагодарили: 2
Поделиться ссылкой на эту раздачу с друзьями:
В контактеFacebookОдноклассникиTwitterLivejournalМой МирLiveinternet
 

 
Показать сообщения:    


Вы не можете начинать темы
Вы не можете отвечать на сообщения
Вы не можете редактировать свои сообщения
Вы не можете удалять свои сообщения
Вы не можете голосовать в опросах
Вы не можете прикреплять файлы к сообщениям
Вы можете скачивать файлы