Loading...
Error

Скачать Бодрость духов / High Spirits (Нил Джордан) [1988, Ужасы, фэнтези, мелодрама, комедия, HDRip] торрент без регистрации

 
Статистика раздачи
Размер:  1,46 GB   |    Скачан:  115 раз

Полного источника не было: 10 дней

 
Автор Сообщение

Шкипер

[] 


Бодрость духов / High Spirits


Год выпуска: 1988
Выпущено: Великобритания, США
Жанр: Ужасы, фэнтези, мелодрама, комедия
Продолжительность: 01:37:25
Перевод: Профессиональный (многоголосый)
Субтитры: Отсутствует

Режиссер: Нил Джордан

В ролях: Дэрил Ханна (Mary Plunkett Brogan), Питер О’Тул (Peter Plunkett), Стив Гуттенберг (Jack Crawford), Беверли Д’Анджело (Sharon Brogan Crawford), Дженнифер Тилли (Miranda), Питер Галлахер (Brother Tony), Лиам Нисон (Martin Brogan), Мартин Ферреро (Malcolm), Донал МакКанн (Eamon), Мэри Кохлан (Katie), Лиз Смит (Mrs. Plunkett), Том Хикки (Sampson)

Описание: Владелец старинного ирландского замка Питер Планкетт решил: пора распахнуть двери своих владений для иностранных туристов. А чтобы привлечь побольше посетителей, он разместил рекламное объявление: особняк буквально наводнен привидениями. Бедняга не знал, что это - чистая правда. И вот полный автобус американских туристов, среди которых супруги Джек и Шэрон, прибыл к замку Планкетта. Тут-то все и началось...



[img]/images/sample.gif[/img]

Рип от:

Качество: HDRip
Формат: AVI
Видео кодек: XviD
Аудио кодек: AC3
Видео: 720x384 (1.85:1), 23.976 fps, XviD build 73 ~1754 kbps avg, 0.26 bit/pixel
Аудио: 48 kHz, AC3 Dolby Digital, 3/2 (L,C,R,l,r) + LFE ch, ~384 kbps

Общее
Полное имя : D:Изготовление рипаBodrost.Duxov.HDRip.by Шкипер.avi
Формат : AVI
Формат/Информация : Audio Video Interleave
Размер файла : 1,46 Гбайт
Продолжительность : 1 ч. 37 м.
Общий поток : 2148 Кбит/сек
Программа кодирования : VirtualDubMod 1.5.10.3 | www.virtualdub-fr.org || (build 2550/release)
Библиотека кодирования : VirtualDubMod build 2550/release

Видео
Идентификатор : 0
Формат : MPEG-4 Visual
Профиль формата : Advanced Simple@L5
Параметр BVOP формата : 1
Параметр QPel формата : Нет
Параметр GMC формата : Без точки перехода
Параметр матрицы формата : Default (MPEG)
Идентификатор кодека : XVID
Идентификатор кодека/Подсказка : XviD
Продолжительность : 1 ч. 37 м.
Битрейт : 1755 Кбит/сек
Ширина : 720 пикселей
Высота : 384 пикселя
Соотношение сторон : 1,85:1
Частота кадров : 23,976 кадра/сек
Цветовое пространство : YUV
Субдискретизация насыщенности : 4:2:0
Битовая глубина : 8 бит
Тип развёртки : Прогрессивная
Метод сжатия : С потерями
Бит/(Пиксели*Кадры) : 0.265
Размер потока : 1,19 Гбайт (82%)
Библиотека кодирования : XviD 73

Аудио
Идентификатор : 1
Формат : AC-3
Формат/Информация : Audio Coding 3
Расширение режима : CM (complete main)
Параметр Endianness формата : Big
Идентификатор кодека : 2000
Продолжительность : 1 ч. 37 м.
Вид битрейта : Постоянный
Битрейт : 384 Кбит/сек
Каналы : 6 каналов
Расположение каналов : Front: L C R, Side: L R, LFE
Частота : 48,0 КГц
Битовая глубина : 16 бит
Метод сжатия : С потерями
Размер потока : 268 Мбайт (18%)
Выравнивание : Разделение по промежуткам
Продолжительность промежутка : 42 мс. (1,00 видеокадр)
Время предзагрузки промежутка : 500 мс.





Скачать Бодрость.духов.High.Spirits.(Нил.Джордан).[1988.Ужасы.фэнтези.мелодрама.комедия.HDRip].torrent без регистрации
Золото ЗОЛОТАЯ РАЗДАЧА! СКАЧАННОЕ НЕ ЗАСЧИТЫВАЕТСЯ! Золото
Дата: Зарегистрирован   [ Тип: внутренний ] Как тут cкачать?
MAGNET ссылка
MAGNET ссылка


Скачать .torrent

15 KB

Статус: проверено
Скачан: торрент - 115 раз, раздача полностью - 11 раз
Размер: 1,46 GB
Оценка:  5 (Голосов: 1)
Поблагодарили: 1
Поделиться ссылкой на эту раздачу с друзьями:
В контактеFacebookОдноклассникиTwitterLivejournalМой МирLiveinternet
 

 
Показать сообщения:    


Вы не можете начинать темы
Вы не можете отвечать на сообщения
Вы не можете редактировать свои сообщения
Вы не можете удалять свои сообщения
Вы не можете голосовать в опросах
Вы не можете прикреплять файлы к сообщениям
Вы можете скачивать файлы