Loading...
Error

Скачать [SERIAL] Викинги / Vikings (сезоны 01-04) (Киаран Доннелли м др.) [2013-2016, боевик, драма, военный, история, HDRip, WEB-DLRip] [MP4, 640x360] [MVO (LostFilm)] торрент без регистрации

Статистика раздачи
Размер:  9,63 GB   |    Скачан:  462 раза
Сидов:  83  [  0 KB/s  ]   Личеров:  28  [  0 KB/s  ]  
 
 
 
Автор Сообщение

МихаНЕзатор

[] 

Информация о фильме
Название: Викинги
Оригинальное название: Vikings
Год выхода: 2013
Жанр: боевик, драма, военный, история
Режиссер: Киаран Доннелли, Йохан Ренк, Кен Джиротти

В ролях: Трэвис Фиммел, Клайв Стэнден, Кэтрин Уинник, Гэбриел Бирн, Джессалин Гилсиг, Густаф Скарсгард, Джефферсон Холл, Джордж Благден, Тадж Мерфи, Диармэйд Мурта

О фильме: Сериал рассказывает об отряде викингов Рагнара. Он восстал, чтобы стать королём племён викингов. Норвежская легенда гласит, что он был прямым потомком Одина, бога войны и воинов..

Релиз от:

Страна: Ирландия, Канада
Продолжительность: 29 х ~ 00:44:00
Перевод: Профессиональный (многоголосый, закадровый) [LostFilm]

Файл
Формат: MP4
Качество: HDRip [Сезоны 1-2], WEB-DLRip [Сезон 3] | КПК
Видео: MPEG-4 AVC (x264), 640x360, ~500 kbps, 23.976 fps
Аудио: AAC LC, 48.0 KHz, 2 ch, 128 Kbps
Субтитры: Нет

АНОНСЫ ПОПУЛЯРНЫХ РАЗДАЧ


Торрент обновлён, добавлен 3-й сезон!

Сезон 1
01. Обряды / Rites of Passage
02. Гнев северян / Wrath of Northmen
03. Обездоленные / Dispossessed
04. Испытание / Trail
05. Набег / Raid
06. Погребение мертвых / Burial of the Dead
07. Королевский выкуп / A King's Ransom
08. Жертвоприношение / Sacrifice
09. Все изменится / All Change
Сезон 2
01. Братская война / Brother`s War
02. Вторжение / Invasion
03. Предательство / Treachery
04. Око за око / Eye For an Eye
05. Истина в крови / Answers in Blood
06. Не прощенный / Unforgiven
07. Кровавый орёл / Blood Eagle
08. Бескостный / Boneless
09. Выбор / The Choice
10. Отче наш / The Lord's Prayer
Сезон 3
01. Наёмник / Mercenary
02. Странник / The Wanderer
03. Судьба воина / Warrior's Fate
04. Шрамы / Scarred
05. Захватчик / The Usurper
06. Рождённый заново /Born Again
07. Париж /Paris
08. В атаку! /To the Gates!
09. Перелом /Breaking Point
10. Мертвец /The Dead
Сезон 4
01. Удачная измена / A Good Treason
02. Убейте королеву! / Kill the Queen
03. Милосердие / Mercy
04. Йоль / Yol
05. Обещанное / Promised
06. Как могло бы быть / What Might Have Been
07. Победы и утраты / The Profit and the Loss
08. Сухопутный переход / Portage
09. Смерть кругом / Death All 'Round
10. Последний драккар / The Last Ship
11. Изгой (The Outsider)
12. Видение (The Vision)
13. Два похода (Two Journeys)
14. В предрассветный час (In the Uncertain Hour Before the Morning)
15. И все ангелы Его (All His Angels)
16. Переход (Crossings)
17. Великая армия (The Great Army)
18. Отмщение (Revenge)
19. Накануне (On the Eve)
20. Возмездие (The Reckoning)
Complete name : E:KinoVikingi.AVC.KPK.LF.GeneralfilmVikingi.S02.2014.AVC.HDRip.KPK.LF.GeneralfilmVikingi.s02e04.2014.AVC.HDRip.KPK.LF.Generalfilm.mp4
Format : MPEG-4
Format profile : Base Media
Codec ID : isom
File size : 200 MiB
Duration : 44mn 9s
Overall bit rate mode : Variable
Overall bit rate : 632 Kbps
Encoded date : UTC 2015-02-28 10:38:25
Tagged date : UTC 2015-02-28 10:38:25

Video
ID : 1
Format : AVC
Format/Info : Advanced Video Codec
Format profile : High@L4.1
Format settings, CABAC : Yes
Format settings, ReFrames : 8 frames
Codec ID : avc1
Codec ID/Info : Advanced Video Coding
Duration : 44mn 9s
Bit rate : 500 Kbps
Maximum bit rate : 2 805 Kbps
Width : 640 pixels
Height : 360 pixels
Display aspect ratio : 16:9
Frame rate mode : Constant
Frame rate : 23.976 fps
Color space : YUV
Chroma subsampling : 4:2:0
Bit depth : 8 bits
Scan type : Progressive
Bits/(Pixel*Frame) : 0.091
Stream size : 158 MiB (79%)
Writing library : x264 core 130 r2273 b3065e6
Encoding settings : cabac=1 / ref=8 / deblock=1:-2:-2 / analyse=0x3:0x133 / me=umh / subme=10 / psy=1 / psy_rd=1.00:0.00 / mixed_ref=1 / me_range=24 / chroma_me=1 / trellis=2 / 8x8dct=1 / cqm=0 / deadzone=21,11 / fast_pskip=1 / chroma_qp_offset=-2 / threads=12 / lookahead_threads=2 / sliced_threads=0 / nr=0 / decimate=0 / interlaced=0 / bluray_compat=0 / constrained_intra=0 / bframes=8 / b_pyramid=2 / b_adapt=2 / b_bias=0 / direct=3 / weightb=1 / open_gop=0 / weightp=2 / keyint=240 / keyint_min=121 / scenecut=40 / intra_refresh=0 / rc_lookahead=40 / rc=2pass / mbtree=1 / bitrate=500 / ratetol=1.0 / qcomp=0.60 / qpmin=0 / qpmax=69 / qpstep=4 / cplxblur=20.0 / qblur=0.5 / ip_ratio=1.40 / aq=1:1.00
Encoded date : UTC 2015-02-28 10:38:25
Tagged date : UTC 2015-02-28 10:38:29

Audio
ID : 2
Format : AAC
Format/Info : Advanced Audio Codec
Format profile : LC
Codec ID : 40
Duration : 44mn 9s
Bit rate mode : Variable
Bit rate : 128 Kbps
Maximum bit rate : 146 Kbps
Channel count : 2 channels
Channel positions : Front: L R
Sampling rate : 48.0 KHz
Compression mode : Lossy
Delay relative to video : 125ms
Stream size : 40.4 MiB (20%)
Encoded date : UTC 2015-02-28 10:38:28
Tagged date : UTC 2015-02-28 10:38:29



Скачать Викинги.Vikings.(сезоны.01-04).(Киаран.Доннелли.м.др.).[2013-2016.боевик.драма.военный.история.HDRip.WEB-DLRip].[MP4.640x360].[MVO.(LostFilm)].torrent без регистрации
Золото ЗОЛОТАЯ РАЗДАЧА! СКАЧАННОЕ НЕ ЗАСЧИТЫВАЕТСЯ! Золото
Дата: Зарегистрирован   [ Тип: внешний ] Как тут cкачать?
MAGNET ссылка
MAGNET ссылка


Скачать .torrent

32 KB

Статус: проверено DHT
Скачан: торрент - 462 раз, раздача полностью - 26 раз
Размер: 9,63 GB
Оценка:  - (Голосов: 0)
Поблагодарили: 4
Поделиться ссылкой на эту раздачу с друзьями:
В контактеFacebookОдноклассникиTwitterLivejournalМой МирLiveinternet
 

 
Показать сообщения:    


Вы не можете начинать темы
Вы не можете отвечать на сообщения
Вы не можете редактировать свои сообщения
Вы не можете удалять свои сообщения
Вы не можете голосовать в опросах
Вы не можете прикреплять файлы к сообщениям
Вы можете скачивать файлы