Loading...
Error

Скачать Нечестных прошу не беспокоить / Fei cheng wu rao (Фэн Сяоган) [2008, мелодрама, комедия, BDRip-AVC] [DVO]+[Оригинал]+[Sub]x2 торрент без регистрации

 
Статистика раздачи
Размер:  2,91 GB   |    Скачан:  134 раза
Сидов:  1  [  0 KB/s  ]  
 
Автор Сообщение

Marsianka

[] 

Нечестных прошу не беспокоить / Если ты единственная / Если ты - та / If You Are the One / Fei cheng wu rao (2008) BDRip-AVC
от
HQCLUB



Информация о фильме:
Название: Нечестных прошу не беспокоить / Если ты единственная / Если ты - та
Оригинальное название: Fei cheng wu rao
Год выхода: 2008
Жанр: мелодрама, комедия
Режиссер: Фэн Сяоган / Feng Xiaogang
В ролях: Гэ Ю, Шу Ци, Фань Вэй, Фэн Юаньчжэн, Алекс Фонг, Вивиан Су, Ху Кэ, Миумиу, Лин Ли, Чэ Сяо, Хэ Цзяи

О фильме: Чинь Фэнь — сорокалетний холостяк, проживший много лет в Америке, возвращается в Китай в надежде найти жену, «современную снаружи, старомодную внутри». Он дает объявление на брачном портале, и начинает встречаться с соискательницами романтической любви. К сожалению, времена изменились, и сегодняшние обитательницы Поднебесной стали весьма прагматичными и раскрепощенными.
Однажды во время своих брачных поисков он встречает ослепительно красивую стюардессу, влюбленную в женатого мужчину, который кормит ее «завтраками» относительно скорого развода. Быстро поняв, что деревце ему не по плечу, озабоченный матримониальными планами «возвращенец» сваливает в сторону, но жизнь закручивает древний как мир сюжет по-своему…



Релиз от -
Автор рипа: Elheym

Выпущено: Китай, Huayi Brothers Media, Media Asia Films Ltd.
Продолжительность: 02:05:15
Перевод: Профессиональный (двухголосый, закадровый) Кубик в кубе
Оригинальная аудиодорожка: китайская
Субтитры: русские (полные: ВадНес, Чайнафилм), английские (полные)
Главы: присутствуют, сохранены оригинальные

Файл:
Формат: MKV
Качество: BDRip-AVC (источник: / Blu-ray Disc [IF_YOU_ARE_THE_ONE_BD_BLUEBIRD] / 1080p)
Видео: 1152x490 (2.35:1), 24.0 fps, MPEG-4 AVC, ~2430 kbps avg, 0.179 bit/pixel
Аудио #1: 48 kHz, AC3 Dolby Digital, 3/2 (L,C,R,l,r) + LFE ch, ~448 kbps avg (DVO.KUBIK.V.KUBE)
Аудио #2: 48 kHz, AC3 Dolby Digital, 3/2 (L,C,R,l,r) + LFE ch, ~448 kbps avg (CHI)
Размер: 2.91 GB
Сэмпл: скачать

Уникальный идентификатор : 180369475362303678879397023897715992167 (0x87B1E5B9BC9A9724A1A775B961CFE667)
Полное имя : If.You.Are.the.One.2008.DUAL.BDRip-AVC.x264.AC3.-HQCLUB.mkv
Формат : Matroska
Версия формата : Version 2
Размер файла : 2,91 Гбайт
Продолжительность : 2 ч. 5 м.
Общий поток : 3328 Кбит/сек
Название фильма : Нечестных прошу не беспокоить / Если ты единственная / Если ты - та / If You Are the One / Fei cheng wu rao (2008) BDRip-AVC by HQCLUB [Elheym]
Дата кодирования : UTC 2015-05-03 11:44:44
Программа кодирования : mkvmerge v5.2.0 ('I can't explain') built on Dec 18 2011 18:12:03
Библиотека кодирования : libebml v1.2.3 + libmatroska v1.3.0
Attachements : Cover.png

Видео
Идентификатор : 1
Формат : AVC
Формат/Информация : Advanced Video Codec
Профиль формата : High@L4.0
Параметр CABAC формата : Да
Параметр ReFrames формата : 13 кадров
Идентификатор кодека : V_MPEG4/ISO/AVC
Продолжительность : 2 ч. 5 м.
Битрейт : 2430 Кбит/сек
Ширина : 1152 пикселя
Высота : 490 пикселей
Соотношение сторон : 2,35:1
Режим частоты кадров : Постоянный
Частота кадров : 24,000 кадра/сек
Цветовое пространство : YUV
Субдискретизация насыщенности : 4:2:0
Битовая глубина : 8 бит
Тип развёртки : Прогрессивная
Бит/(Пиксели*Кадры) : 0.179
Размер потока : 2,07 Гбайт (71%)
Заголовок : Нечестных прошу не беспокоить / If You Are the One / Fei cheng wu rao (2008) BDRip-AVC by HQCLUB [Elheym]
Библиотека кодирования : x264 core 146 r2538kMod 121396c
Настройки программы : cabac=1 / ref=13 / deblock=1:-2:-1 / analyse=0x3:0x113 / me=umh / subme=11 / psy=1 / fade_compensate=0.00 / psy_rd=0.85:0.00 / mixed_ref=1 / me_range=32 / chroma_me=1 / trellis=2 / 8x8dct=1 / cqm=0 / deadzone=21,11 / fast_pskip=1 / chroma_qp_offset=-2 / threads=6 / lookahead_threads=1 / sliced_threads=0 / nr=0 / decimate=1 / interlaced=0 / bluray_compat=0 / constrained_intra=0 / fgo=0 / bframes=16 / b_pyramid=2 / b_adapt=2 / b_bias=0 / direct=3 / weightb=1 / open_gop=0 / weightp=2 / keyint=230 / keyint_min=23 / scenecut=40 / intra_refresh=0 / rc_lookahead=80 / rc=2pass / mbtree=0 / bitrate=2430 / ratetol=1.0 / qcomp=0.80 / qpmin=0 / qpmax=69 / qpstep=4 / cplxblur=20.0 / qblur=0.5 / vbv_maxrate=20000 / vbv_bufsize=25000 / nal_hrd=none / filler=0 / ip_ratio=1.40 / pb_ratio=1.30 / aq=2:0.55
Язык : Chinese
Default : Да
Forced : Нет

Аудио #1
Идентификатор : 2
Формат : AC-3
Формат/Информация : Audio Coding 3
Расширение режима : CM (complete main)
Параметр Endianness формата : Big
Идентификатор кодека : A_AC3
Продолжительность : 2 ч. 5 м.
Вид битрейта : Постоянный
Битрейт : 448 Кбит/сек
Каналы : 6 каналов
Расположение каналов : Front: L C R, Side: L R, LFE
Частота : 48,0 КГц
Битовая глубина : 16 бит
Метод сжатия : С потерями
Размер потока : 401 Мбайт (13%)
Заголовок : АС3 5.1 @ 448 kbps - DVO, Kubik v kube
Язык : Russian
Default : Нет
Forced : Нет

Аудио #2
Идентификатор : 3
Формат : AC-3
Формат/Информация : Audio Coding 3
Расширение режима : CM (complete main)
Параметр Endianness формата : Big
Идентификатор кодека : A_AC3
Продолжительность : 2 ч. 5 м.
Вид битрейта : Постоянный
Битрейт : 448 Кбит/сек
Каналы : 6 каналов
Расположение каналов : Front: L C R, Side: L R, LFE
Частота : 48,0 КГц
Битовая глубина : 16 бит
Метод сжатия : С потерями
Размер потока : 401 Мбайт (13%)
Заголовок : АС3 5.1 @ 448 kbps - Original
Язык : Chinese
Default : Нет
Forced : Нет

Текст #1
Идентификатор : 4
Формат : UTF-8
Идентификатор кодека : S_TEXT/UTF8
Идентификатор кодека/Информация : UTF-8 Plain Text
Заголовок : Full, VadNes
Язык : Russian
Default : Нет
Forced : Нет

Текст #2
Идентификатор : 5
Формат : UTF-8
Идентификатор кодека : S_TEXT/UTF8
Идентификатор кодека/Информация : UTF-8 Plain Text
Заголовок : Full, Chajnafilm
Язык : Russian
Default : Нет
Forced : Нет

Текст #3
Идентификатор : 6
Формат : UTF-8
Идентификатор кодека : S_TEXT/UTF8
Идентификатор кодека/Информация : UTF-8 Plain Text
Заголовок : Full
Язык : English
Default : Нет
Forced : Нет

Меню
00:00:00.000 : :Chapter 01
00:05:56.625 : :Chapter 02
00:07:55.625 : :Chapter 03
00:13:47.208 : :Chapter 04
00:21:35.500 : :Chapter 05
00:26:38.416 : :Chapter 06
00:33:35.916 : :Chapter 07
00:39:45.250 : :Chapter 08
00:44:53.250 : :Chapter 09
00:56:16.833 : :Chapter 10
01:02:23.166 : :Chapter 11
01:09:43.958 : :Chapter 12
01:13:38.000 : :Chapter 13
01:22:55.958 : :Chapter 14
01:26:15.291 : :Chapter 15
01:31:59.583 : :Chapter 16
01:37:40.000 : :Chapter 17
01:42:27.041 : :Chapter 18
01:51:11.250 : :Chapter 19
01:59:05.708 : :Chapter 20
02:05:15.166 : :Chapter 21

x264 [info]: frame I:1274 Avg QP:16.09 size: 88886
x264 [info]: frame P:31957 Avg QP:18.80 size: 29135
x264 [info]: frame B:147147 Avg QP:21.38 size: 8412

x264 [info]: consecutive B-frames: 1.2% 1.0% 2.6% 8.4% 10.9% 53.0% 8.0% 3.2% 5.1% 1.2% 2.1% 1.4% 0.8% 0.6% 0.1% 0.1% 0.1%

x264 [info]: ref P L0: 36.8% 9.6% 19.5% 6.5% 6.8% 4.2% 4.8% 2.1% 2.5% 1.7% 2.0% 1.5% 1.9% 0.1% 0.0%
x264 [info]: ref B L0: 63.0% 14.1% 7.2% 4.0% 2.8% 2.6% 2.0% 1.3% 1.1% 1.1% 0.6% 0.3%
x264 [info]: ref B L1: 91.4% 8.6%



Скачать Нечестных.прошу.не.беспокоить.Fei.cheng.wu.rao.(Фэн.Сяоган).[2008.мелодрама.комедия.BDRip-AVC].[DVO]+[Оригинал]+[Sub]x2.torrent без регистрации
Золото ЗОЛОТАЯ РАЗДАЧА! СКАЧАННОЕ НЕ ЗАСЧИТЫВАЕТСЯ! Золото
Дата: Зарегистрирован   [ Тип: внутренний ] Как тут cкачать?
MAGNET ссылка
MAGNET ссылка


Скачать .torrent

15 KB

Статус: проверено DHT
Скачан: торрент - 134 раз, раздача полностью - 0 раз
Размер: 2,91 GB
Оценка:  - (Голосов: 0)
Поблагодарили: 1
Поделиться ссылкой на эту раздачу с друзьями:
В контактеFacebookОдноклассникиTwitterLivejournalМой МирLiveinternet
 

 
Показать сообщения:    


Вы не можете начинать темы
Вы не можете отвечать на сообщения
Вы не можете редактировать свои сообщения
Вы не можете удалять свои сообщения
Вы не можете голосовать в опросах
Вы не можете прикреплять файлы к сообщениям
Вы можете скачивать файлы