Loading...
Error

Скачать Байки из склепа: Демон ночи / Tales from the Crypt: Demon Knight (Эрнест Р. Дикерсон) [1995 г., ужасы, фэнтези, триллер, комедия, HDRip] [MVO (R5)] торрент без регистрации

 
Статистика раздачи
Размер:  1,46 GB   |    Скачан:  114 раз
Сидов:  3  [  0 KB/s  ]  
 
Автор Сообщение

durik

[] 

Байки из склепа: Демон ночи / Tales from the Crypt: Demon Knight

Информация о фильме
Название: Байки из склепа: Демон ночи
Оригинальное название: Tales from the Crypt: Demon Knight
Год выхода: 1995
Жанр: ужасы, фэнтези, триллер, комедия
Режиссер: Эрнест Р. Дикерсон
В ролях: Джон Кассир , Билли Зейн, Уильям Сэдлер, Джада Пинкетт Смит, Бренда Бакки, Си Си Эйч Паундер, Дик Миллер, Томас Хейден Чёрч, Джон Шак, Гэри Фармер, Чарльз Флайшер, Тим Де Зарн, Шерри Роуз, Райан О`Донохью, Тони Салом, Кен Болдуин, Чейси Лэйн, Реда Биби, Трэйси Бингхэм

О фильме:
Два «человека», живущих уже не первую сотню лет, приезжают в маленький городок. Один из них, повелитель демонов, может понаделать их целую кучу из своей крови. А второй пытается его победить при помощи крови разбойника Варраввы, распятого рядом с Христом. Содержалась эта кровь в седьмом ключе, необходимом Нечистому для окончательного овладения миром. Участниками этой насыщенной кошмарами борьбы оказались несколько обычных граждан, о чем они вскоре очень пожалели…



Страна: США
Студия: Universal Pictures
Продолжительность: 01:32:23
Перевод: Профессиональный (многоголосый закадровый) [R5]

Файл
Кодек: XviD
Качество: HDRip
Видео: 720x384, 1805 kbps, 23,976 fps, 0,272 Bits/(Pixel*Frame)
Звук: AC3, 48 kHz, 6 ch, 448 kbps - R5
Субтитры: Нет
General
Complete name : I:Demon.Knight.1995.P.HDRip_by_Bathory.avi
Format : AVI
Format/Info : Audio Video Interleave
File size : 1.46 GiB
Duration : 1h 32mn
Overall bit rate : 2 262 Kbps
Writing application : VirtualDubMod 1.5.10.3 | www.virtualdub-fr.org || (build 2550/release)
Writing library : VirtualDubMod build 2550/release

Video
ID : 0
Format : MPEG-4 Visual
Format profile : Advanced Simple@L5
Format settings, BVOP : 1
Format settings, QPel : No
Format settings, GMC : No warppoints
Format settings, Matrix : Custom
Codec ID : XVID
Codec ID/Hint : XviD
Duration : 1h 32mn
Bit rate : 1 805 Kbps
Width : 720 pixels
Height : 384 pixels
Display aspect ratio : 1.85:1
Frame rate : 23.976 fps
Color space : YUV
Chroma subsampling : 4:2:0
Bit depth : 8 bits
Scan type : Progressive
Compression mode : Lossy
Bits/(Pixel*Frame) : 0.272
Stream size : 1.16 GiB (80%)
Writing library : XviD 73

Audio
ID : 1
Format : AC-3
Format/Info : Audio Coding 3
Mode extension : CM (complete main)
Format settings, Endianness : Big
Codec ID : 2000
Duration : 1h 32mn
Bit rate mode : Constant
Bit rate : 448 Kbps
Channel(s) : 6 channels
Channel positions : Front: L C R, Side: L R, LFE
Sampling rate : 48.0 KHz
Bit depth : 16 bits
Compression mode : Lossy
Stream size : 296 MiB (20%)
Alignment : Split accross interleaves
Interleave, duration : 42 ms (1.00 video frame)
Interleave, preload duration : 500 ms
Релиз от:

Автор рипа: Bathory



Скачать Байки.из.склепа.Демон.ночи.Tales.from.the.Crypt.Demon.Knight.(Эрнест.Р.Дикерсон).[1995.г.ужасы.фэнтези.триллер.комедия.HDRip].[MVO.(R5)].torrent без регистрации
Золото ЗОЛОТАЯ РАЗДАЧА! СКАЧАННОЕ НЕ ЗАСЧИТЫВАЕТСЯ! Золото
Дата: Зарегистрирован   [ Тип: внешний ] Как тут cкачать?
MAGNET ссылка
MAGNET ссылка


Скачать .torrent

15 KB

Статус: проверено DHT
Скачан: торрент - 114 раз, раздача полностью - 9 раз
Размер: 1,46 GB
Оценка:  5 (Голосов: 1)
Поблагодарили: 2
Поделиться ссылкой на эту раздачу с друзьями:
В контактеFacebookОдноклассникиTwitterLivejournalМой МирLiveinternet
 

 
Показать сообщения:    


Вы не можете начинать темы
Вы не можете отвечать на сообщения
Вы не можете редактировать свои сообщения
Вы не можете удалять свои сообщения
Вы не можете голосовать в опросах
Вы не можете прикреплять файлы к сообщениям
Вы можете скачивать файлы