Loading...
Error

Скачать Байки из склепа / Tales from the Crypt (Фредди Фрэнсис) [1972, ужасы, триллер, комикс, HDTVRip] [720p] [VO (Павел Иванов)]+[Sub] торрент без регистрации

 
Статистика раздачи
Размер:  4,5 GB   |    Скачан:  121 раз
Сидов:  1  [  0 KB/s  ]  
 
Автор Сообщение

Marsianka

[] 

Информация о фильме
Название: Байки из склепа
Оригинальное название: Tales from the Crypt
Год выхода: 1972
Жанр: ужасы, триллер, комикс
Режиссер: Фредди Фрэнсис
В ролях: Джоан Коллинз, Питер Кушинг, Рой Дотрис, Ричард Грин, Иэн Хендри, Патрик Мэги, Барбара Мюррэй, Найджел Патрик, Робин Филлипс, Ральф Ричардсон, Джеффри Бэйлдон, Дэвид Маркам, Роберт Хаттон, Анджела Грант, Сьюзэн Денни, Мэннинг Уилсон, Хлоя Фрэнкс, Кэй Адриан, Карлос Бэйкер

О фильме:
Пятеро туристов на экскурсии по катакомбам случайно сбиваются с пути и забредают в странную комнату, где встречают странного человека, который рассказывает им истории об их смерти.



Страна: США, Великобритания
Студия: Amicus Productions, Metromedia Producers Corporation (MPC)
Продолжительность: 01:32:27
Перевод: Любительский (одноголосый закадровый) Павел Иванов

Файл
Кодек: H.264
Качество: HDTVRip 720p
Видео: MPEG-4 AVC, 1280x716, 6386 Кбит/с, 23.976 кадр/с
Аудио#1: Русский (AC3, 2ch, 192 Кбит/с, 48.0 KHz)
Аудио#2: Английский (AC3, 2ch, 384 Кбит/с, 48.0 KHz)
Субтитры: Английские
Сэмпл
General
Complete name : E:TorrentTales From the Crypt (1972) HDTVRip 720p.mkv
Format : Matroska
File size : 4.50 GiB
Duration : 1h 32mn
Overall bit rate : 6 963 Kbps
Encoded date : UTC 2010-06-22 08:31:35
Writing application : mkvmerge v2.4.0 ('Fumbling Towards Ecstasy') built on Oct 11 2008 20:13:15
Writing library : libebml v0.7.7 + libmatroska v0.8.1

Video
ID : 1
Format : AVC
Format/Info : Advanced Video Codec
Format profile : High@L4.1
Format settings, CABAC : Yes
Format settings, ReFrames : 8 frames
Muxing mode : Container profile=Unknown@4.1
Codec ID : V_MPEG4/ISO/AVC
Duration : 1h 32mn
Bit rate : 6 248 Kbps
Nominal bit rate : 6 386 Kbps
Width : 1 280 pixels
Height : 716 pixels
Display aspect ratio : 16:9
Frame rate : 23.976 fps
Resolution : 24 bits
Colorimetry : 4:2:0
Scan type : Progressive
Bits/(Pixel*Frame) : 0.284
Stream size : 4.03 GiB (90%)
Writing library : x264 core 98 r1649 20cbe10
Encoding settings : cabac=1 / ref=9 / deblock=1:-3:-3 / analyse=0x3:0x133 / me=umh / subme=9 / psy=1 / psy_rd=1.00:0.00 / mixed_ref=1 / me_range=16 / chroma_me=1 / trellis=2 / 8x8dct=1 / cqm=0 / deadzone=21,11 / fast_pskip=1 / chroma_qp_offset=-2 / threads=6 / sliced_threads=0 / nr=0 / decimate=1 / interlaced=0 / constrained_intra=0 / bframes=6 / b_pyramid=1 / b_adapt=2 / b_bias=0 / direct=3 / weightb=1 / weightp=2 / keyint=250 / keyint_min=25 / scenecut=40 / intra_refresh=0 / rc_lookahead=60 / rc=2pass / mbtree=1 / bitrate=6386 / ratetol=1.0 / qcomp=0.60 / qpmin=10 / qpmax=51 / qpstep=4 / cplxblur=20.0 / qblur=0.5 / vbv_maxrate=50000 / vbv_bufsize=50000 / ip_ratio=1.40 / aq=1:0.80 / nal_hrd=none
Language : English

Audio #1
ID : 2
Format : AC-3
Format/Info : Audio Coding 3
Codec ID : A_AC3
Duration : 1h 32mn
Bit rate mode : Constant
Bit rate : 192 Kbps
Channel(s) : 2 channels
Channel positions : L R
Sampling rate : 48.0 KHz
Stream size : 127 MiB (3%)
Title : Eraserhead
Language : Russian

Audio #2
ID : 3
Format : AC-3
Format/Info : Audio Coding 3
Codec ID : A_AC3
Duration : 1h 32mn
Bit rate mode : Constant
Bit rate : 384 Kbps
Channel(s) : 2 channels
Channel positions : L R
Sampling rate : 48.0 KHz
Video delay : 32ms
Stream size : 254 MiB (6%)
Title : Eng
Language : English

Text
ID : 4
Format : ASS
Codec ID : S_TEXT/ASS
Codec ID/Info : Advanced Sub Station Alpha
Title : Eng
Language : English



Скачать Байки.из.склепа.Tales.from.the.Crypt.(Фредди.Фрэнсис).[1972.ужасы.триллер.комикс.HDTVRip].[720p].[VO.(Павел.Иванов)]+[Sub].torrent без регистрации
Золото ЗОЛОТАЯ РАЗДАЧА! СКАЧАННОЕ НЕ ЗАСЧИТЫВАЕТСЯ! Золото
Дата: Зарегистрирован   [ Тип: внутренний ] Как тут cкачать?
MAGNET ссылка
MAGNET ссылка


Скачать .torrent

12 KB

Статус: проверено DHT
Скачан: торрент - 121 раз, раздача полностью - 14 раз
Размер: 4,5 GB
Оценка:  - (Голосов: 0)
Поблагодарили: 0
Поделиться ссылкой на эту раздачу с друзьями:
В контактеFacebookОдноклассникиTwitterLivejournalМой МирLiveinternet
 

 
Показать сообщения:    


Вы не можете начинать темы
Вы не можете отвечать на сообщения
Вы не можете редактировать свои сообщения
Вы не можете удалять свои сообщения
Вы не можете голосовать в опросах
Вы не можете прикреплять файлы к сообщениям
Вы можете скачивать файлы