Loading...
Error

Скачать Свирепые создания / Fierce Creatures (Фред Скеписи, Роберт Уильям Янг) [1997, комедия, BDRip-AVC] [MVO]x2+[DVO]+[AVO]+[Оригинал]+[Sub] торрент без регистрации

 
Статистика раздачи
Размер:  2,54 GB   |    Скачан:  117 раз
Сидов:  1  [  0 KB/s  ]  
 
Автор Сообщение

Marsianka

[] 

Информация о фильме
Название: Свирепые создания
Оригинальное название: Fierce Creatures
Год выхода: 1997
Жанр: комедия
Режиссер: Фред Скеписи, Роберт Уильям Янг
В ролях: Джон Клиз, Джейми Ли Кёртис, Кевин Клайн, Роберт Линдсэй, Майкл Пэлин, Ронни Корбетт, Кэри Лоуэлл, Билле Браун, Дерек Гриффитс, Синтия Клиз, Ричард Райдингс, Мария Аиткен, Майкл Персивал, Фред Эванс, Лиза Хоган, Тим Поттер, Дженни Гэлловэй, Шон Френсис, Джули Саундерс, Сьюзи Блейк, Пэт Кин

О фильме:
Огромная корпорация Octopus Inc. во главе с проницательным и жестоким магнатом Родом Маккейном покупает находящийся в Великобритании развлекательный центр и недавно закрывшийся Зоопарк. Новый владелец нанимает менеджера, Ролло Ли, который быстро придумывает способ извлечения прибыли - необходимо покончить со всеми животными, за исключением свирепых. Эти кардинальные меры потрясают служащих зоопарка, которые срочно начинают придумывать, как спасти зверей и обмануть жестоких хозяев...



Страна: США, Великобритания
Студия: Fish Productions, Jersey Films, Universal Pictures
Продолжительность: 01:33:12
Перевод: Профессиональный многоголосый, профессиональный двухголосый, авторский

Файл
Кодек: MPEG-4 AVC
Качество: BDRip-AVC
Видео: 2550 Кбит/с, 1024x432, 23.976 кадр/с
Русский (AC3, 2 ch, 192 Кбит/с), (AC3, 6 ch, 384 Кбит/с), украинский (AC3, 2 ch, 192 Кбит/с), английский (AC3, 6 ch, 384 Кбит/с)
Субтитры: Английские
Рип от StarbirS

Aудио#1: Russian: 48 kHz, AC3, 2 (L,R) + LFE ch, ~192.00 kbps avg - Профессиональный многоголосый (Первый канал)
Aудио#2: Russian: 48 kHz, AC3, 2 (L,R) + LFE ch, ~192.00 kbps avg - Профессиональный двухголосый (Премьер-Видео)
Аудио#3: Russian: AC3, 48 kHz, AC3, 3/2 (L,C,R,l,r) + LFE ch, ~384.00 kbps avg - Авторский одноголосый (Ю. Живов)
Aудио#4: Ukrainian: 48 kHz, AC3, 2 (L,R) + LFE ch, ~192.00 kbps avg - Профессиональный многоголосый (НЛО)
Аудио#5: English: AC3, 48 kHz, AC3, 3/2 (L,C,R,l,r) + LFE ch, ~384.00 kbps avg - Оригинал

Субтитры: Английские

x264 [info]: frame I:1356 Avg QP:17.06 size: 83438
x264 [info]: frame P:29263 Avg QP:20.03 size: 26928
x264 [info]: frame B:103469 Avg QP:22.08 size: 8510
Формат : Matroska
Версия формата : Version 2
Размер файла : 2,54 Гбайт
Продолжительность : 1 ч. 33 м.
Общий поток : 3895 Кбит/сек
Название фильма : Fierce.Creatures.1997.x264.BDRip.(AVC)
Дата кодирования : UTC 2015-05-04 06:45:59
Программа кодирования : mkvmerge v7.7.0 ('Six Voices') 64bit built on Feb 28 2015 23:39:33
Библиотека кодирования : libebml v1.3.1 + libmatroska v1.4.2

Видео
Идентификатор : 1
Формат : AVC
Формат/Информация : Advanced Video Codec
Профиль формата : High@L4.1
Параметр CABAC формата : Да
Параметр ReFrames формата : 11 кадров
Идентификатор кодека : V_MPEG4/ISO/AVC
Продолжительность : 1 ч. 33 м.
Битрейт : 2550 Кбит/сек
Ширина : 1024 пикселя
Высота : 432 пикселя
Соотношение сторон : 2,40:1
Режим частоты кадров : Постоянный
Частота кадров : 23,976 кадра/сек
Цветовое пространство : YUV
Субдискретизация насыщенности : 4:2:0
Битовая глубина : 8 бит
Тип развёртки : Прогрессивная
Бит/(Пиксели*Кадры) : 0.240
Размер потока : 1,61 Гбайт (64%)
Заголовок : Fierce.Creatures.1997.x264.BDRip.(AVC).by.StarbirS
Библиотека кодирования : x264 core 146 r2538 121396c
Настройки программы : cabac=1 / ref=11 / deblock=1:-3:-3 / analyse=0x3:0x113 / me=umh / subme=10 / psy=1 / psy_rd=1.00:0.15 / mixed_ref=1 / me_range=32 / chroma_me=1 / trellis=2 / 8x8dct=1 / cqm=0 / deadzone=21,11 / fast_pskip=0 / chroma_qp_offset=-3 / threads=12 / lookahead_threads=2 / sliced_threads=0 / nr=0 / decimate=0 / interlaced=0 / bluray_compat=0 / constrained_intra=0 / bframes=8 / b_pyramid=2 / b_adapt=2 / b_bias=0 / direct=3 / weightb=1 / open_gop=1 / weightp=2 / keyint=240 / keyint_min=23 / scenecut=40 / intra_refresh=0 / rc=2pass / mbtree=0 / bitrate=2550 / ratetol=1.0 / qcomp=0.65 / qpmin=0 / qpmax=69 / qpstep=4 / cplxblur=20.0 / qblur=0.5 / ip_ratio=1.40 / pb_ratio=1.30 / aq=3:0.90
Язык : English
Default : Да
Forced : Нет

Аудио #1
Идентификатор : 2
Формат : AC-3
Формат/Информация : Audio Coding 3
Профиль формата : Dolby Digital
Расширение режима : CM (complete main)
Параметр Endianness формата : Big
Идентификатор кодека : A_AC3
Продолжительность : 1 ч. 33 м.
Вид битрейта : Постоянный
Битрейт : 192 Кбит/сек
Каналы : 2 канала
Расположение каналов : Front: L R
Частота : 48,0 КГц
Битовая глубина : 16 бит
Метод сжатия : С потерями
Размер потока : 128 Мбайт (5%)
Заголовок : Профессиональный многоголосый (Первый канал)
Язык : Russian
Default : Да
Forced : Нет

Аудио #2
Идентификатор : 3
Формат : AC-3
Формат/Информация : Audio Coding 3
Профиль формата : Dolby Digital
Расширение режима : CM (complete main)
Параметр Endianness формата : Big
Идентификатор кодека : A_AC3
Продолжительность : 1 ч. 33 м.
Вид битрейта : Постоянный
Битрейт : 192 Кбит/сек
Каналы : 2 канала
Расположение каналов : Front: L R
Частота : 48,0 КГц
Битовая глубина : 16 бит
Метод сжатия : С потерями
Размер потока : 128 Мбайт (5%)
Заголовок : Профессиональный двухголосый (Премьер-Видео)
Язык : Russian
Default : Нет
Forced : Нет

Аудио #3
Идентификатор : 4
Формат : AC-3
Формат/Информация : Audio Coding 3
Расширение режима : CM (complete main)
Параметр Endianness формата : Big
Идентификатор кодека : A_AC3
Продолжительность : 1 ч. 33 м.
Вид битрейта : Постоянный
Битрейт : 384 Кбит/сек
Каналы : 6 каналов
Расположение каналов : Front: L C R, Side: L R, LFE
Частота : 48,0 КГц
Битовая глубина : 16 бит
Метод сжатия : С потерями
Размер потока : 256 Мбайт (10%)
Заголовок : Авторский одноголосый (Ю. Живов)
Язык : Russian
Default : Нет
Forced : Нет

Аудио #4
Идентификатор : 5
Формат : AC-3
Формат/Информация : Audio Coding 3
Профиль формата : Dolby Digital
Расширение режима : CM (complete main)
Параметр Endianness формата : Big
Идентификатор кодека : A_AC3
Продолжительность : 1 ч. 33 м.
Вид битрейта : Постоянный
Битрейт : 192 Кбит/сек
Каналы : 2 канала
Расположение каналов : Front: L R
Частота : 48,0 КГц
Битовая глубина : 16 бит
Метод сжатия : С потерями
Размер потока : 128 Мбайт (5%)
Заголовок : Профессиональный многоголосый (НЛО)
Язык : Ukrainian
Default : Нет
Forced : Нет

Аудио #5
Идентификатор : 6
Формат : AC-3
Формат/Информация : Audio Coding 3
Расширение режима : CM (complete main)
Параметр Endianness формата : Big
Идентификатор кодека : A_AC3
Продолжительность : 1 ч. 33 м.
Вид битрейта : Постоянный
Битрейт : 384 Кбит/сек
Каналы : 6 каналов
Расположение каналов : Front: L C R, Side: L R, LFE
Частота : 48,0 КГц
Битовая глубина : 16 бит
Метод сжатия : С потерями
Размер потока : 256 Мбайт (10%)
Язык : English
Default : Нет
Forced : Нет

Текст
Идентификатор : 7
Формат : UTF-8
Идентификатор кодека : S_TEXT/UTF8
Идентификатор кодека/Информация : UTF-8 Plain Text
Язык : English
Default : Нет
Forced : Нет

Меню
00:00:00.000 : en:00:00:00.000
00:08:18.581 : en:00:08:18.581
00:17:06.567 : en:00:17:06.567
00:22:41.235 : en:00:22:41.235
00:28:27.247 : en:00:28:27.247
00:39:01.548 : en:00:39:01.548
00:49:52.615 : en:00:49:52.615
00:58:01.687 : en:00:58:01.687
01:02:51.393 : en:01:02:51.393
01:15:01.455 : en:01:15:01.455
01:23:13.322 : en:01:23:13.322
01:29:33.326 : en:01:29:33.326



Скачать Свирепые.создания.Fierce.Creatures.(Фред.Скеписи.Роберт.Уильям.Янг).[1997.комедия.BDRip-AVC].[MVO]x2+[DVO]+[AVO]+[Оригинал]+[Sub].torrent без регистрации
Золото ЗОЛОТАЯ РАЗДАЧА! СКАЧАННОЕ НЕ ЗАСЧИТЫВАЕТСЯ! Золото
Дата: Зарегистрирован   [ Тип: внутренний ] Как тут cкачать?
MAGNET ссылка
MAGNET ссылка


Скачать .torrent

13 KB

Статус: проверено DHT
Скачан: торрент - 117 раз, раздача полностью - 0 раз
Размер: 2,54 GB
Оценка:  - (Голосов: 0)
Поблагодарили: 1
Поделиться ссылкой на эту раздачу с друзьями:
В контактеFacebookОдноклассникиTwitterLivejournalМой МирLiveinternet
 

 
Показать сообщения:    


Вы не можете начинать темы
Вы не можете отвечать на сообщения
Вы не можете редактировать свои сообщения
Вы не можете удалять свои сообщения
Вы не можете голосовать в опросах
Вы не можете прикреплять файлы к сообщениям
Вы можете скачивать файлы