Loading...
Error

Скачать Убийцы на замену / The Replacement Killers (Антуан Фукуа) [1998, боевик, триллер, драма, криминал, BDRip] [Dub] торрент без регистрации

 
Статистика раздачи
Размер:  745 MB   |    Скачан:  116 раз
Сидов:  1  [  0 KB/s  ]  
 
Автор Сообщение

Marsianka

[] 

«Убийца становится мишенью»

Страна: США
Производство: Brillstein-Grey Entertainment, Columbia Pictures Corporation, WCG Entertainment Productions
Жанр: боевик, триллер, драма, криминал
Год выпуска: 1998
Продолжительность: 01:36:07

Перевод: Профессиональный (полное дублирование)
Оригинальная аудиодорожка: нет
Cубтитры: нет

Режиссер: Антуан Фукуа /Antoine Fuqua

В ролях:
Чоу Юн-Фат /Chow Yun-Fat/, Майра Сорвино /Mira Sorvino/, Майкл Рукер /Michael Rooker/, Юрген Прохнов /Jurgen Prochnow/, Карлос Гомес /Carlos Gomez/, Фрэнк Медрано /Frank Medrano/, Кеннет Тсанг /Kenneth Tsang/, Дэнни Трехо /Danny Trejo/, Тиль Швайгер /Til Schweiger/, Пэтрик Килпэтрик /Patrick Kilpatrick/, Рэндолл Дак Ким /Randall Duk Kim/, Яу-Джин Чэн /Yau-Gene Chan/, Клифтон Гонсалес-Гонсалес /Clifton Gonzalez Gonzalez/...

Роли дублировали:
Ирина Мазуркевич, Валерий Кухарешин, Сергей Паршин, Алексей Зубарев, Алексей Гурьев...

Описание:
Профессиональный киллер Джон Ли получает новое задание — убить полицейского. Но в решающий момент он не смог нажать на курок: под прицелом оказался ребенок. А мафия не прощает ошибок. На замену она посылает своих людей, и Джон становится мишенью. Теперь он и мошенница Мэг, которая случайно становится участницей всех событий, попадают под перекрестный огонь преступников и полиции. Единственный способ спастись — скрываться и от тех и от других, но рано или поздно им придется столкнуться лицом к лицу…


Исходник: BDRemux 1080p
Тип релиза: BDRip
Контейнер: AVI

Видео: 720x304 (2.35:1), 23,976 fps, XviD ~ 946 kbps avg, 0.180 bit/pixel
Аудио: 48 kHz, MP3 2.0, 128 kbps

Раздача от:

Общее
Полное имя : Ubiycy.na.zamenu.1998.BDRip-745_[New-team]_by_AVP_Studio.avi
Формат : AVI
Формат/Информация : Audio Video Interleave
Размер файла : 745 Мбайт
Продолжительность : 1 ч. 36 м.
Общий поток : 1084 Кбит/сек
Программа кодирования : VirtualDubModRus 1.5.10.2 (build 2542/release)
Библиотека кодирования : VirtualDubMod build 2542/release

Видео
Идентификатор : 0
Формат : MPEG-4 Visual
Профиль формата : Advanced Simple@L5
Параметр BVOP формата : 1
Параметр QPel формата : Нет
Параметр GMC формата : Без точки перехода
Параметр матрицы формата : Выборочная
Идентификатор кодека : XVID
Идентификатор кодека/Подсказка : XviD
Продолжительность : 1 ч. 36 м.
Битрейт : 946 Кбит/сек
Ширина : 720 пикселей
Высота : 304 пикселя
Соотношение сторон : 2,35:1
Частота кадров : 23,976 кадра/сек
Цветовое пространство : YUV
Субдискретизация насыщенности : 4:2:0
Битовая глубина : 8 бит
Тип развёртки : Прогрессивная
Метод сжатия : С потерями
Бит/(Пиксели*Кадры) : 0.180
Размер потока : 651 Мбайт (87%)
Библиотека кодирования : XviD 73

Аудио
Идентификатор : 1
Формат : MPEG Audio
Версия формата : Version 1
Профиль формата : Layer 3
Идентификатор кодека : 55
Идентификатор кодека/Подсказка : MP3
Продолжительность : 1 ч. 36 м.
Вид битрейта : Постоянный
Битрейт : 128 Кбит/сек
Каналы : 2 канала
Частота : 48,0 КГц
Метод сжатия : С потерями
Размер потока : 88,0 Мбайт (12%)
Выравнивание : Соединение по промежуткам
Продолжительность промежутка : 42 мс. (1,00 видеокадр)
Время предзагрузки промежутка : 504 мс.
Библиотека кодирования : LAME3.99r
Настройки программы : -m s -V 4 -q 2 -lowpass 17 -b 128



Скачать Убийцы.на.замену.The.Replacement.Killers.(Антуан.Фукуа).[1998.боевик.триллер.драма.криминал.BDRip].[Dub].torrent без регистрации
Золото ЗОЛОТАЯ РАЗДАЧА! СКАЧАННОЕ НЕ ЗАСЧИТЫВАЕТСЯ! Золото
Дата: Зарегистрирован   [ Тип: внутренний ] Как тут cкачать?
MAGNET ссылка
MAGNET ссылка


Скачать .torrent

15 KB

Статус: проверено DHT
Скачан: торрент - 116 раз, раздача полностью - 4 раз
Размер: 745 MB
Оценка:  - (Голосов: 0)
Поблагодарили: 0
Поделиться ссылкой на эту раздачу с друзьями:
В контактеFacebookОдноклассникиTwitterLivejournalМой МирLiveinternet
 

 
Показать сообщения:    


Вы не можете начинать темы
Вы не можете отвечать на сообщения
Вы не можете редактировать свои сообщения
Вы не можете удалять свои сообщения
Вы не можете голосовать в опросах
Вы не можете прикреплять файлы к сообщениям
Вы можете скачивать файлы