Loading...
Error

Скачать Правдивая ложь / True Lies (Джеймс Кэмерон) [1994, боевик, комедия, мелодрама, приключения, D-TheaterRip-AVC] [Dub]+[MVO]x4+[AVO]+[Sub]x4 торрент без регистрации

 
Статистика раздачи
Размер:  5,48 GB   |    Скачан:  120 раз
Сидов:  1  [  0 KB/s  ]  
 
Автор Сообщение

Marsianka

[] 

Информация о фильме
Название: Правдивая ложь
Оригинальное название: True Lies
Год выхода: 1994
Жанр: боевик, комедия, мелодрама, приключения
Режиссер: Джеймс Кэмерон
В ролях: Арнольд Шварценеггер, Джейми Ли Кертис, Том Арнольд, Билл Пэкстон, Тиа Каррере, Арт Малик, Элиза Душку, Грант Хеслов, Маршалл Манеш, Джеймс Аллен, Дитер Ротер, Джейн Моррис, Кэтси Чаппель, Кристина Уилер, Офер Самра, Пол Барселоу, Чарльз А. Тамбурро, Жан-Клод Парачини, Юзи Гал, Маджед Ибрагим, Армен Ксажикян, Майк Экрави, Майк Камерон, Чарльз Крагин, Лоуи Мардини, Джино Сальвано, Скотт Дотсон, Том Исбелл, Джон Бруно, Чарлтон Хестон, Мэри Эй ДеБрай, Ким Джансатерино, Эл Камарр, Дэйв Найт, Джоди Миллард, Андре Ниррнел, Эрик Парилло, Мануэль Перри, Чарли Пичерн

О фильме:
Для своей семьи Гарри Таскер — любящий муж и отец, человек скромный и рассеянный, обыкновенный продавец компьютеров, "не вылезающий" с работы ни днем, ни ночью. Но лишь немногие знают, что на самом деле Гарри — специальный агент тайной правительственной службы, специализирующийся на особо опасных заданиях, владеющий кучей языков, всеми видами оружия и всеми возможными способами "отправки" злодеев на тот свет...


Страна: США
Студия: 20th Century Fox
Продолжительность: 02:21:58
Перевод: Дублированный, профессиональный многоголосый, авторский одноголосый

Файл
Кодек: h264
Качество: D-TheaterRip-AVC
Видео: 2522 Кбит/с, 1024x438, 23.976 кадр/с

• №1: Русский (AC3, 6 ch, 448 Кбит/с) Дублированный
• №2: Русский (AC3, 6 ch, 448 Кбит/с) Профессиональный многоголосый [R5 "Lizard Cinema Trade"]
• №3: Русский (AC3, 6 ch, 448 Кбит/с) Профессиональный многоголосый [Супербит/Киномания]
• №4: Русский (AC3, 2 ch, 192 Кбит/с) Профессиональный многоголосый [Премьер Видео Фильм]
• №5: Русский (AC3, 6 ch, 448 Кбит/с) Профессиональный многоголосый [НТВ+]
• №6: Русский (AC3, 6 ch, 448 Кбит/с) Авторский одноголосый [Андрей Гаврилов]
• №7: Английский (AC3, 6 ch, 448 Кбит/с)

Субтитры: Русские (R5), русские (Киномания (SDH)), украинские (R5), английские
Семпл

Полное имя : Pravdivaja.lozh.1994.x264.D-TheaterRip.(AVC).0ptimus.mkv
Формат : Matroska
Версия формата : Version 2
Размер файла : 5,48 Гбайт
Продолжительность : 2 ч. 21 м.
Общий поток : 5531 Кбит/сек
Название фильма : Правдивая ложь / True Lies [1994] -= D-TheaterRip (AVC) by 0ptimus=-
Дата кодирования : UTC 2012-07-30 11:03:17
Программа кодирования : mkvmerge v5.7.0 ('The Whirlwind') built on Jul 8 2012 20:08:51
Библиотека кодирования : libebml v1.2.3 + libmatroska v1.3.0

Видео
Идентификатор : 1
Формат : AVC
Формат/Информация : Advanced Video Codec
Профиль формата : High@L4.1
Параметр CABAC формата : Да
Параметр ReFrames формата : 9 кадров
Идентификатор кодека : V_MPEG4/ISO/AVC
Продолжительность : 2 ч. 21 м.
Битрейт : 2522 Кбит/сек
Ширина : 1024 пикселя
Высота : 438 пикселей
Соотношение сторон : 2,35:1
Частота кадров : 23,976 кадра/сек
Цветовое пространство : YUV
Субдискретизация насыщенности : 4:2:0
Битовая глубина : 8 бит
Тип развёртки : Прогрессивная
Бит/(Пиксели*Кадры) : 0.235
Размер потока : 2,39 Гбайт (44%)
Заголовок : by 0ptimus
Библиотека кодирования : x264 core 116 r2044 392e762
Настройки программы : cabac=1 / ref=9 / deblock=1:-2:-1 / analyse=0x3:0x113 / me=umh / subme=11 / psy=1 / psy_rd=1.00:0.20 / mixed_ref=1 / me_range=32 / chroma_me=1 / trellis=2 / 8x8dct=1 / cqm=0 / deadzone=21,11 / fast_pskip=0 / chroma_qp_offset=-3 / threads=3 / sliced_threads=0 / nr=0 / decimate=1 / interlaced=0 / bluray_compat=0 / constrained_intra=0 / bframes=6 / b_pyramid=2 / b_adapt=2 / b_bias=0 / direct=3 / weightb=1 / open_gop=0 / weightp=2 / keyint=250 / keyint_min=23 / scenecut=40 / intra_refresh=0 / rc=2pass / mbtree=0 / bitrate=2522 / ratetol=1.0 / qcomp=0.60 / qpmin=0 / qpmax=69 / qpstep=4 / cplxblur=20.0 / qblur=0.5 / ip_ratio=1.40 / pb_ratio=1.30 / aq=1:1.00
Язык : English

Аудио #1
Идентификатор : 2
Формат : AC-3
Формат/Информация : Audio Coding 3
Расширение режима : CM (complete main)
Идентификатор кодека : A_AC3
Продолжительность : 2 ч. 21 м.
Вид битрейта : Постоянный
Битрейт : 448 Кбит/сек
Каналы : 6 каналов
Расположение каналов : Front: L C R, Side: L R, LFE
Частота : 48,0 КГц
Битовая глубина : 16 бит
Метод сжатия : С потерями
Размер потока : 455 Мбайт (8%)
Заголовок : Дублированный
Язык : Russian

Аудио #2
Идентификатор : 3
Формат : AC-3
Формат/Информация : Audio Coding 3
Расширение режима : CM (complete main)
Идентификатор кодека : A_AC3
Продолжительность : 2 ч. 21 м.
Вид битрейта : Постоянный
Битрейт : 448 Кбит/сек
Каналы : 6 каналов
Расположение каналов : Front: L C R, Side: L R, LFE
Частота : 48,0 КГц
Битовая глубина : 16 бит
Метод сжатия : С потерями
Размер потока : 455 Мбайт (8%)
Заголовок : Многоголосый [R5 "Lizard Cinema Trade"]
Язык : Russian

Аудио #3
Идентификатор : 4
Формат : AC-3
Формат/Информация : Audio Coding 3
Расширение режима : CM (complete main)
Идентификатор кодека : A_AC3
Продолжительность : 2 ч. 21 м.
Вид битрейта : Постоянный
Битрейт : 448 Кбит/сек
Каналы : 6 каналов
Расположение каналов : Front: L C R, Side: L R, LFE
Частота : 48,0 КГц
Битовая глубина : 16 бит
Метод сжатия : С потерями
Размер потока : 455 Мбайт (8%)
Заголовок : Многоголосый [Супербит/Киномания]
Язык : Russian

Аудио #4
Идентификатор : 5
Формат : AC-3
Формат/Информация : Audio Coding 3
Расширение режима : CM (complete main)
Идентификатор кодека : A_AC3
Продолжительность : 2 ч. 21 м.
Вид битрейта : Постоянный
Битрейт : 192 Кбит/сек
Каналы : 2 канала
Расположение каналов : Front: L R
Частота : 48,0 КГц
Битовая глубина : 16 бит
Метод сжатия : С потерями
Размер потока : 195 Мбайт (3%)
Заголовок : MVO [Премьер Видео Фильм]
Язык : Russian

Аудио #5
Идентификатор : 6
Формат : AC-3
Формат/Информация : Audio Coding 3
Расширение режима : CM (complete main)
Идентификатор кодека : A_AC3
Продолжительность : 2 ч. 21 м.
Вид битрейта : Постоянный
Битрейт : 448 Кбит/сек
Каналы : 6 каналов
Расположение каналов : Front: L C R, Side: L R, LFE
Частота : 48,0 КГц
Битовая глубина : 16 бит
Метод сжатия : С потерями
Размер потока : 455 Мбайт (8%)
Заголовок : MVO [НТВ+]
Язык : Russian

Аудио #6
Идентификатор : 7
Формат : AC-3
Формат/Информация : Audio Coding 3
Расширение режима : CM (complete main)
Идентификатор кодека : A_AC3
Продолжительность : 2 ч. 21 м.
Вид битрейта : Постоянный
Битрейт : 448 Кбит/сек
Каналы : 6 каналов
Расположение каналов : Front: L C R, Side: L R, LFE
Частота : 48,0 КГц
Битовая глубина : 16 бит
Метод сжатия : С потерями
Размер потока : 455 Мбайт (8%)
Заголовок : AVO [Андрей Гаврилов]
Язык : Russian

Аудио #7
Идентификатор : 8
Формат : AC-3
Формат/Информация : Audio Coding 3
Расширение режима : CM (complete main)
Идентификатор кодека : A_AC3
Продолжительность : 2 ч. 21 м.
Вид битрейта : Постоянный
Битрейт : 576 Кбит/сек
Каналы : 6 каналов
Расположение каналов : Front: L C R, Side: L R, LFE
Частота : 48,0 КГц
Битовая глубина : 16 бит
Метод сжатия : С потерями
Размер потока : 585 Мбайт (10%)
Язык : English

Текст #1
Идентификатор : 9
Формат : UTF-8
Идентификатор кодека : S_TEXT/UTF8
Идентификатор кодека/Информация : UTF-8 Plain Text
Заголовок : R5
Язык : Russian

Текст #2
Идентификатор : 10
Формат : UTF-8
Идентификатор кодека : S_TEXT/UTF8
Идентификатор кодека/Информация : UTF-8 Plain Text
Заголовок : Киномания
Язык : Russian

Текст #3
Идентификатор : 11
Формат : UTF-8
Идентификатор кодека : S_TEXT/UTF8
Идентификатор кодека/Информация : UTF-8 Plain Text
Заголовок : R5
Язык : Ukrainian

Текст #4
Идентификатор : 12
Формат : UTF-8
Идентификатор кодека : S_TEXT/UTF8
Идентификатор кодека/Информация : UTF-8 Plain Text
Язык : English

-----------------------------------------------------
x264 [info]: frame I:1731 Avg QP:17.86 size: 56901
x264 [info]: frame P:51957 Avg QP:20.20 size: 22429
x264 [info]: frame B:150548 Avg QP:22.34 size: 9442
-----------------------------------------------------
Релиз от:



Скачать Правдивая.ложь.True.Lies.(Джеймс.Кэмерон).[1994.боевик.комедия.мелодрама.приключения.D-TheaterRip-AVC].[Dub]+[MVO]x4+[AVO]+[Sub]x4.torrent без регистрации
Золото ЗОЛОТАЯ РАЗДАЧА! СКАЧАННОЕ НЕ ЗАСЧИТЫВАЕТСЯ! Золото
Дата: Зарегистрирован   [ Тип: внутренний ] Как тут cкачать?
MAGNET ссылка
MAGNET ссылка


Скачать .torrent

14 KB

Статус: проверено DHT
Скачан: торрент - 120 раз, раздача полностью - 49 раз
Размер: 5,48 GB
Оценка:  - (Голосов: 0)
Поблагодарили: 3
Поделиться ссылкой на эту раздачу с друзьями:
В контактеFacebookОдноклассникиTwitterLivejournalМой МирLiveinternet
 

 
Показать сообщения:    


Вы не можете начинать темы
Вы не можете отвечать на сообщения
Вы не можете редактировать свои сообщения
Вы не можете удалять свои сообщения
Вы не можете голосовать в опросах
Вы не можете прикреплять файлы к сообщениям
Вы можете скачивать файлы