Loading...
Error

Скачать Призрак дома на холме / The Haunting (Ян де Бонт) [1999, мистика, ужасы, триллер, HDRip] [MVO] торрент без регистрации

 
Статистика раздачи
Размер:  1,46 GB   |    Скачан:  107 раз
Сидов:  1  [  0 KB/s  ]  
 
Автор Сообщение

Marsianka

[] 

Информация о фильме
Название: Призрак дома на холме
Оригинальное название: The Haunting
Год выхода: 1999
Жанр: мистика, ужасы, триллер
Режиссер: Ян де Бонт
В ролях: Кэтрин Зета-Джонс, Лиам Нисон, Лили Тейлор, Оуэн Уилсон, Вирджиния Мэдсен, Брюс Дерн, Мэриан Селдерс, Аликс Коромзай, Тодд Филд, Майкл Кэвано, Чарльз Ганнинг, М.С. Гэйни, Мэри МакНил, Хэдли Юар

О фильме:
Жуткие легенды ходят вокруг огромного и зловещего особняка, известного как «Дом на холме». Это мрачное и величественное строение, некогда принадлежавшее богатейшему текстильному магнату Хью Крэйну, вот уже больше века стоит пустым и считается проклятым местом. Но именно его для своих экспериментов выбирает специалист по изучению сна доктор Марроу. Группа из четырех страдающих бессоницей молодых людей, которую пригласил доктор Марроу, должна будет провести в жутком доме несколько дней и ночей. Однако никто из участников этого странного проекта не предполагал, с каким чудовищным кошмаром им придется столкнуться. Экранизация произведения Ширли Джексона.



Страна: США
Студия: DreamWorks SKG, Roth-Arnold Productions
Продолжительность: 01:52:21
Перевод: Профессиональный многоголосый

Файл
Кодек: XviD
Качество: HDRip
Видео: 720x304, 23.976 fps, 1662 kbps
Аудио: AC3, 2 ch, 48.0 khz, 192 kbps
Общее
Полное имя : Prizrak.Doma.Na.Holme.1999.HDRip.avi
Формат : AVI
Формат/Информация : Audio Video Interleave
Размер файла : 1,46 Гбайт
Продолжительность : 1 ч. 52 м.
Общий поток : 1864 Кбит/сек
Программа кодирования : VirtualDubMod 1.5.10.3 | www.virtualdub-fr.org || (build 2550/release)
Библиотека кодирования : VirtualDubMod build 2550/release

Видео
Идентификатор : 0
Формат : MPEG-4 Visual
Профиль формата : Advanced Simple@L5
Параметр BVOP формата : 1
Параметр QPel формата : Нет
Параметр GMC формата : Без точки перехода
Параметр матрицы формата : Выборочная
Идентификатор кодека : XVID
Идентификатор кодека/Подсказка : XviD
Продолжительность : 1 ч. 52 м.
Битрейт : 1662 Кбит/сек
Ширина : 720 пикс.
Высота : 304 пикс.
Соотношение сторон : 2,35:1
Частота кадров : 23,976 кадр/сек
Цветовое пространство : YUV
Подвыборка цветности : 4:2:0
Битовая глубина : 8 бит
Тип развёртки : Прогрессивная
Метод сжатия : С потерями
Бит/(Пиксели*Кадры) : 0.317
Размер потока : 1,30 Гбайт (89%)
Библиотека кодирования : XviD 73

Аудио
Идентификатор : 1
Формат : AC-3
Формат/Информация : Audio Coding 3
Расширение режима : CM (complete main)
Идентификатор кодека : 2000
Продолжительность : 1 ч. 52 м.
Вид битрейта : Постоянный
Битрейт : 192 Кбит/сек
Канал(ы) : 2 канала(ов)
Расположение каналов : Front: L R
Частота : 48,0 КГц
Битовая глубина : 16 бит
Метод сжатия : С потерями
Размер потока : 154 Мбайт (10%)
Выравнивание : Разделение по промежуткам
Продолжительность промежутка : 42 мс. (1,00 видеокадр)
Время предзагрузки промежутка : 500 ms
Релиз от: Leon-masl



Скачать Призрак.дома.на.холме.The.Haunting.(Ян.де.Бонт).[1999.мистика.ужасы.триллер.HDRip].[MVO].torrent без регистрации
Золото ЗОЛОТАЯ РАЗДАЧА! СКАЧАННОЕ НЕ ЗАСЧИТЫВАЕТСЯ! Золото
Дата: Зарегистрирован   [ Тип: внутренний ] Как тут cкачать?
MAGNET ссылка
MAGNET ссылка


Скачать .torrent

15 KB

Статус: проверено DHT
Скачан: торрент - 107 раз, раздача полностью - 6 раз
Размер: 1,46 GB
Оценка:  - (Голосов: 0)
Поблагодарили: 1
Поделиться ссылкой на эту раздачу с друзьями:
В контактеFacebookОдноклассникиTwitterLivejournalМой МирLiveinternet
 

 
Показать сообщения:    


Вы не можете начинать темы
Вы не можете отвечать на сообщения
Вы не можете редактировать свои сообщения
Вы не можете удалять свои сообщения
Вы не можете голосовать в опросах
Вы не можете прикреплять файлы к сообщениям
Вы можете скачивать файлы