Loading...
Error

Скачать Шофёр мисс Дэйзи / Driving Miss Daisy (Брюс Бересфорд) [1989, драма, комедия, BDRip AVC] [MVO]+[AVO]+[Оригинал]+[Sub] торрент без регистрации

 
Статистика раздачи
Размер:  3,15 GB   |    Скачан:  118 раз
Сидов:  1  [  0 KB/s  ]  
 
Автор Сообщение

Marsianka

[] 

Название: Шофёр мисс Дэйзи
Оригинальное название: Driving Miss Daisy
Год выпуска: 1989
Страна: США
Жанр: драма, комедия
Продолжительность: 01:39:24
Перевод: профессиональный многоголосый, авторский

Режиссёр: Брюс Бересфорд

В ролях: Морган Фримен, Джессика Тэнди, Дэн Эйкройд, Патти ЛюПон, Эстер Ролли, Уильям Холл мл., Элвин М. Шугарман, Мюриэль Мур, Сильвия Калер, Кэролин Голд, Кристал Р. Фокс, Боб Ханна, Рэй МакКиннон, Эшли Джоуси, Джек Руссо, Индра А. Томас, Дин Дюбуа, Мартин Лютер Кинг, Д. Тейлор Лоб

Описание: В основе сюжета непростые взаимоотношения богатой американки еврейского происхождения и её водителя-афроамериканца. Действие фильма происходит в Атланте в 50-е годы XX века, когда расовые предрассудки были ещё сильны. Мисс Дэйзи вдова, и сын настаивает на найме для неё водителя. Она противится изменениям в своей жизни, отказывается ездить куда-либо с новым водителем. Но со временем Хоук завоёвывает не только её расположение, но и дружбу. Фильм рассказывает о поисках взаимопонимания между двумя очень разными людьми. И поиски эти занимают без малого двадцать лет.



Качество: BDRip AVC Сравнение с исходником
Формат: MKV
Видео: MPEG-4 AVC, 3352 Kбит/с, 1024x576, 23,976 кадра/с
Аудио 1: русский, AC3, 448 kbps, 6 ch, 48 kHz [профессиональный многоголосый]
Аудио 2: русский, AC3, 192 kbps, 2 ch, 48 kHz [авторский, Пётр Карцев]
Аудио 3: английский, AC3, 448 kbps, 6 ch, 48 kHz [оригинал]
Субтитры: русские
Британская академия, 1991 год
Победитель (1):
Лучшая женская роль (Джессика Тэнди)

Номинации (3):
Лучший фильм
Лучший режиссер (Брюс Бересфорд)
Лучший адаптированный сценарий

Оскар, 1990 год
Победитель (4):
Лучший фильм
Лучшая женская роль (Джессика Тэнди)
Лучший адаптированный сценарий
Лучший грим

Номинации (5):
Лучшая мужская роль (Морган Фриман)
Лучшая мужская роль второго плана (Дэн Эйкройд)
Лучшие декорации
Лучшие костюмы
Лучший монтаж

Золотой глобус, 1990 год
Победитель (3):
Лучший фильм (комедия или мюзикл)
Лучшая мужская роль (комедия или мюзикл) (Морган Фриман)
Лучшая женская роль (комедия или мюзикл) (Джессика Тэнди)

Берлинский кинофестиваль, 1990 год
Победитель (1):
Серебряный Медведь - лучшая актерская команда

Номинации (1):
Золотой Медведь
frame I:940 Avg QP:17.95 size: 91619
frame P:26002 Avg QP:19.16 size: 41354
frame B:116074 Avg QP:21.22 size: 12087

Общее
Уникальный идентификатор : 216810108252434131369195443989771105908 (0xA31C1BA41D00B4909493E94174CEB674)
Полное имя : D:VideoШофёр мисс Дэйзи.1989.BDRip.AVC.mkv
Формат : Matroska
Версия формата : Version 4 / Version 2
Размер файла : 3,15 Гбайт
Продолжительность : 1 ч. 39 м.
Общий поток : 4530 Кбит/сек
Название фильма : BDRip -- STarankov
Дата кодирования : UTC 2015-05-09 04:10:28
Программа кодирования : mkvmerge v7.8.0 ('River Man') 64bit built on Mar 27 2015 16:31:37
Библиотека кодирования : libebml v1.3.1 + libmatroska v1.4.2
_STATISTICS_WRITING_APP : mkvmerge v7.8.0 ('River Man') 64bit built on Mar 27 2015 16:31:37
_STATISTICS_WRITING_DATE_UTC : 2015-05-09 04:10:28
_STATISTICS_TAGS : BPS DURATION NUMBER_OF_FRAMES NUMBER_OF_BYTES
DURATION : 01:34:48.933000000
NUMBER_OF_FRAMES : 1130
NUMBER_OF_BYTES : 59919

Видео
Идентификатор : 1
Формат : AVC
Формат/Информация : Advanced Video Codec
Профиль формата : High@L4.1
Параметр CABAC формата : Да
Параметр ReFrames формата : 9 кадров
Идентификатор кодека : V_MPEG4/ISO/AVC
Продолжительность : 1 ч. 39 м.
Битрейт : 3352 Кбит/сек
Ширина : 1024 пикселя
Высота : 576 пикселей
Соотношение сторон : 16:9
Режим частоты кадров : Постоянный
Частота кадров : 23,976 кадра/сек
Цветовое пространство : YUV
Субдискретизация насыщенности : 4:2:0
Битовая глубина : 8 бит
Тип развёртки : Прогрессивная
Бит/(Пиксели*Кадры) : 0.237
Размер потока : 2,33 Гбайт (74%)
Библиотека кодирования : x264 core 146 r2538 121396c
Настройки программы : cabac=1 / ref=9 / deblock=1:-1:-1 / analyse=0x3:0x113 / me=umh / subme=10 / psy=1 / psy_rd=1.00:0.15 / mixed_ref=1 / me_range=32 / chroma_me=1 / trellis=2 / 8x8dct=1 / cqm=0 / deadzone=21,11 / fast_pskip=1 / chroma_qp_offset=-3 / threads=6 / lookahead_threads=1 / sliced_threads=0 / nr=0 / decimate=1 / interlaced=0 / bluray_compat=0 / constrained_intra=0 / bframes=8 / b_pyramid=2 / b_adapt=2 / b_bias=0 / direct=1 / weightb=1 / open_gop=0 / weightp=2 / keyint=230 / keyint_min=23 / scenecut=40 / intra_refresh=0 / rc_lookahead=40 / rc=crf / mbtree=0 / crf=19.0 / qcomp=0.60 / qpmin=0 / qpmax=69 / qpstep=4 / vbv_maxrate=40000 / vbv_bufsize=50000 / crf_max=0.0 / nal_hrd=none / filler=0 / ip_ratio=1.40 / pb_ratio=1.30 / aq=1:1.00
Язык : English
Default : Да
Forced : Нет
DURATION : 01:39:24.959000000
NUMBER_OF_FRAMES : 143016
NUMBER_OF_BYTES : 2564408902
_STATISTICS_WRITING_APP : mkvmerge v7.8.0 ('River Man') 64bit built on Mar 27 2015 16:31:37
_STATISTICS_WRITING_DATE_UTC : 2015-05-09 04:10:28
_STATISTICS_TAGS : BPS DURATION NUMBER_OF_FRAMES NUMBER_OF_BYTES

Аудио #1
Идентификатор : 2
Формат : AC-3
Формат/Информация : Audio Coding 3
Расширение режима : CM (complete main)
Параметр Endianness формата : Big
Идентификатор кодека : A_AC3
Продолжительность : 1 ч. 39 м.
Вид битрейта : Постоянный
Битрейт : 448 Кбит/сек
Каналы : 6 каналов
Расположение каналов : Front: L C R, Side: L R, LFE
Частота : 48,0 КГц
Битовая глубина : 16 бит
Метод сжатия : С потерями
Размер потока : 319 Мбайт (10%)
Заголовок : MVO
Язык : Russian
Default : Да
Forced : Нет

Аудио #2
Идентификатор : 3
Формат : AC-3
Формат/Информация : Audio Coding 3
Профиль формата : Dolby Digital
Расширение режима : CM (complete main)
Параметр Endianness формата : Big
Идентификатор кодека : A_AC3
Продолжительность : 1 ч. 39 м.
Вид битрейта : Постоянный
Битрейт : 192 Кбит/сек
Каналы : 2 канала
Расположение каналов : Front: L R
Частота : 48,0 КГц
Битовая глубина : 16 бит
Метод сжатия : С потерями
Размер потока : 137 Мбайт (4%)
Заголовок : AVO (Пётр Карцев)
Язык : Russian
Default : Нет
Forced : Нет

Аудио #3
Идентификатор : 4
Формат : AC-3
Формат/Информация : Audio Coding 3
Расширение режима : CM (complete main)
Параметр Endianness формата : Big
Идентификатор кодека : A_AC3
Продолжительность : 1 ч. 39 м.
Вид битрейта : Постоянный
Битрейт : 448 Кбит/сек
Каналы : 6 каналов
Расположение каналов : Front: L C R, Side: L R, LFE
Частота : 48,0 КГц
Битовая глубина : 16 бит
Метод сжатия : С потерями
Размер потока : 319 Мбайт (10%)
Заголовок : Original
Язык : English
Default : Нет
Forced : Нет

Текст
Идентификатор : 5
Формат : UTF-8
Идентификатор кодека : S_TEXT/UTF8
Идентификатор кодека/Информация : UTF-8 Plain Text
Заголовок : русские
Язык : Russian
Default : Нет
Forced : Нет



Скачать Шофёр.мисс.Дэйзи.Driving.Miss.Daisy.(Брюс.Бересфорд).[1989.драма.комедия.BDRip.AVC].[MVO]+[AVO]+[Оригинал]+[Sub].torrent без регистрации
Золото ЗОЛОТАЯ РАЗДАЧА! СКАЧАННОЕ НЕ ЗАСЧИТЫВАЕТСЯ! Золото
Дата: Зарегистрирован   [ Тип: внутренний ] Как тут cкачать?
MAGNET ссылка
MAGNET ссылка


Скачать .torrent

16 KB

Статус: проверено DHT
Скачан: торрент - 118 раз, раздача полностью - 5 раз
Размер: 3,15 GB
Оценка:  - (Голосов: 0)
Поблагодарили: 2
Поделиться ссылкой на эту раздачу с друзьями:
В контактеFacebookОдноклассникиTwitterLivejournalМой МирLiveinternet
 

 
Показать сообщения:    


Вы не можете начинать темы
Вы не можете отвечать на сообщения
Вы не можете редактировать свои сообщения
Вы не можете удалять свои сообщения
Вы не можете голосовать в опросах
Вы не можете прикреплять файлы к сообщениям
Вы можете скачивать файлы