Loading...
Error

Скачать Лето 42-го / Summer of '42 (Роберт Маллиган) [1971, драма, мелодрама, DVDRip-AVC] [DVO]+[Sub]x2 торрент без регистрации

 
Статистика раздачи
Размер:  1,49 GB   |    Скачан:  112 раз
Сидов:  1  [  0 KB/s  ]  
 
Автор Сообщение

Marsianka

[] 

Информация о фильме
Название: Лето 42-го
Оригинальное название: Summer of '42
Год выхода: 1971
Жанр: драма, мелодрама
Режиссер: Роберт Маллиган / Robert Mulligan
В ролях: Дженнифер О’Нил, Гэри Граймз, Джерри Хаузер, Оливер Конент, Кэтрин Аллентак, Кристофер Норрис, Лу Фриззелл, Роберт Маллиган, Уолтер Скотт, Морин Стейплтон

О фильме:
Трое пятнадцатилетних подростков приезжают на летние каникулы в Новую Англию. Двое из них интересуются любовными похождениями со сверстницами, а третий переживает настоящий взрослый роман с двадцатидвухлетней женщиной, муж которой отбыл на фронт. Юное сердце сталкивается с нешуточными страстями, которые заставляют его сделать непростой выбор между чувством и сочувствием, желанием и состраданием по отношению к молодой женщине, оставшейся в одиночестве и потому особо нуждающейся в нежности.


Страна: США
Студия: Warner Bros
Продолжительность: 01:43:58
Перевод: Профессиональный (двухголосый закадровый) "СВ Дубль" (ГТРК "Культура")

Файл
Кодек: h.264
Качество: DVDRip-AVC
Видео: 720x480 (16:9) @ 854x480 (анаморф), 23.976 fps, AVC, ~1665 Kbps, 0.201 bits/pixel

1) Английский, 48.0 KHz, AC3, 1 ch, 192 Kbps
2) Русский, 48.0 KHz, AC3, 1 ch, 192 Kbps
Субтитры:
1) Английские, VobSub
2) Русские, SRT(UTF-8)
Общее
Уникальный идентификатор : 245243531884216238696679118750921193927 (0xB8802FA8FD0DF630B3C6D9CDAD96F9C7)
Полное имя : D:FilmsLeto_42.1971.DVDRip-AVC.mkv
Формат : Matroska
Версия формата : Version 4 / Version 2
Размер файла : 1,49 Гбайт
Продолжительность : 1 ч. 43 м.
Общий поток : 2053 Кбит/сек
Дата кодирования : UTC 2013-05-08 15:25:24
Программа кодирования : mkvmerge v6.2.0 ('Promised Land') built on Apr 28 2013 12:22:01
Библиотека кодирования : libebml v1.3.0 + libmatroska v1.4.0

Видео
Идентификатор : 1
Формат : AVC
Формат/Информация : Advanced Video Codec
Профиль формата : High@L4.1
Параметр CABAC формата : Да
Параметр ReFrames формата : 16 кадров
Идентификатор кодека : V_MPEG4/ISO/AVC
Продолжительность : 1 ч. 43 м.
Битрейт : 1665 Кбит/сек
Ширина : 720 пикселей
Высота : 480 пикселей
Соотношение сторон : 16:9
Режим частоты кадров : Постоянный
Частота кадров : 23,976 кадра/сек
Стандарт вещания : NTSC
Цветовое пространство : YUV
Субдискретизация насыщенности : 4:2:0
Битовая глубина : 8 бит
Тип развёртки : Прогрессивная
Бит/(Пиксели*Кадры) : 0.201
Размер потока : 1,18 Гбайт (79%)
Библиотека кодирования : x264 core 130 r2273 b3065e6
Настройки программы : cabac=1 / ref=16 / deblock=1:0:0 / analyse=0x3:0x133 / me=umh / subme=10 / psy=1 / psy_rd=1.05:0.10 / mixed_ref=1 / me_range=32 / chroma_me=1 / trellis=2 / 8x8dct=1 / cqm=0 / deadzone=21,11 / fast_pskip=0 / chroma_qp_offset=-3 / threads=8 / lookahead_threads=2 / sliced_threads=0 / nr=0 / decimate=0 / interlaced=0 / bluray_compat=0 / constrained_intra=0 / bframes=12 / b_pyramid=2 / b_adapt=2 / b_bias=0 / direct=3 / weightb=1 / open_gop=0 / weightp=2 / keyint=240 / keyint_min=23 / scenecut=40 / intra_refresh=0 / rc=2pass / mbtree=0 / bitrate=1665 / ratetol=1.0 / qcomp=0.60 / qpmin=0 / qpmax=60 / qpstep=4 / cplxblur=20.0 / qblur=0.5 / ip_ratio=1.40 / pb_ratio=1.30 / aq=2:1.00
Default : Нет
Forced : Нет
Коэффициенты матрицы : BT.601

Аудио #1
Идентификатор : 2
Формат : AC-3
Формат/Информация : Audio Coding 3
Расширение режима : CM (complete main)
Параметр Endianness формата : Big
Идентификатор кодека : A_AC3
Продолжительность : 1 ч. 43 м.
Вид битрейта : Постоянный
Битрейт : 192 Кбит/сек
Каналы : 1 канал
Расположение каналов : Front: C
Частота : 48,0 КГц
Битовая глубина : 16 бит
Метод сжатия : С потерями
Задержка видео : 16 мс.
Размер потока : 143 Мбайт (9%)
Язык : English
Default : Нет
Forced : Нет

Аудио #2
Идентификатор : 3
Формат : AC-3
Формат/Информация : Audio Coding 3
Расширение режима : CM (complete main)
Параметр Endianness формата : Big
Идентификатор кодека : A_AC3
Продолжительность : 1 ч. 43 м.
Вид битрейта : Постоянный
Битрейт : 192 Кбит/сек
Каналы : 1 канал
Расположение каналов : Front: C
Частота : 48,0 КГц
Битовая глубина : 16 бит
Метод сжатия : С потерями
Задержка видео : 16 мс.
Размер потока : 143 Мбайт (9%)
Язык : Russian
Default : Да
Forced : Нет

Текст #1
Идентификатор : 4
Формат : VobSub
Режим смешивания : zlib
Идентификатор кодека : S_VOBSUB
Идентификатор кодека/Информация : The same subtitle format used on DVDs
Язык : English
Default : Нет
Forced : Нет

Текст #2
Идентификатор : 5
Формат : UTF-8
Идентификатор кодека : S_TEXT/UTF8
Идентификатор кодека/Информация : UTF-8 Plain Text
Язык : Russian
Default : Нет
Forced : Нет

Меню
00:00:00.000 : en:Chapter 01
00:02:49.667 : en:Chapter 02
00:05:23.501 : en:Chapter 03
00:08:58.701 : en:Chapter 04
00:11:26.335 : en:Chapter 05
00:14:01.036 : en:Chapter 06
00:17:25.403 : en:Chapter 07
00:19:30.371 : en:Chapter 08
00:23:56.838 : en:Chapter 09
00:28:45.672 : en:Chapter 10
00:31:01.705 : en:Chapter 11
00:35:37.872 : en:Chapter 12
00:41:06.406 : en:Chapter 13
00:42:55.873 : en:Chapter 14
00:47:08.307 : en:Chapter 15
00:49:31.841 : en:Chapter 16
00:53:09.341 : en:Chapter 17
00:56:53.374 : en:Chapter 18
01:02:56.407 : en:Chapter 19
01:06:00.375 : en:Chapter 20
01:10:35.842 : en:Chapter 21
01:15:30.810 : en:Chapter 22
01:17:56.044 : en:Chapter 23
01:21:02.311 : en:Chapter 24
01:25:14.179 : en:Chapter 25
01:31:37.047 : en:Chapter 26
01:35:39.547 : en:Chapter 27
01:38:44.881 : en:Chapter 28
01:42:57.648 : en:Chapter 29
frame I:860 Avg QP:14.85 size: 45952
frame P:39043 Avg QP:17.89 size: 17848
frame B:109669 Avg QP:19.24 size: 5125
Исходник R1, синхронизированы русские субтитры и перевод.
Релиз от: от Temperest



Скачать Лето.42-го.Summer.of.'42.(Роберт.Маллиган).[1971.драма.мелодрама.DVDRip-AVC].[DVO]+[Sub]x2.torrent без регистрации
Золото ЗОЛОТАЯ РАЗДАЧА! СКАЧАННОЕ НЕ ЗАСЧИТЫВАЕТСЯ! Золото
Дата: Зарегистрирован   [ Тип: внутренний ] Как тут cкачать?
MAGNET ссылка
MAGNET ссылка


Скачать .torrent

16 KB

Статус: проверено DHT
Скачан: торрент - 112 раз, раздача полностью - 0 раз
Размер: 1,49 GB
Оценка:  - (Голосов: 0)
Поблагодарили: 1
Поделиться ссылкой на эту раздачу с друзьями:
В контактеFacebookОдноклассникиTwitterLivejournalМой МирLiveinternet
 

 
Показать сообщения:    


Вы не можете начинать темы
Вы не можете отвечать на сообщения
Вы не можете редактировать свои сообщения
Вы не можете удалять свои сообщения
Вы не можете голосовать в опросах
Вы не можете прикреплять файлы к сообщениям
Вы можете скачивать файлы