Loading...
Error

Скачать Затерянные в космосе / Lost in Space (Стивен Хопкинс) [1998, фантастика, боевик, триллер, приключения, BDRip] [Dub]+[Оригинал]+[Sub]x2 торрент без регистрации

 
Статистика раздачи
Размер:  1,46 GB   |    Скачан:  134 раза
Сидов:  8  [  0 KB/s  ]   Личеров:  1  [  0 KB/s  ]  
 
Автор Сообщение

Marsianka

[] 

«Большое космическое приключение»

Страна: США
Производство: Irwin Allen Productions, New Line Cinema, Prelude Pictures, Saltire Entertainment
Жанр: фантастика, боевик, триллер, приключения
Год выпуска: 1998
Продолжительность: 02:10:14

Перевод: Профессиональный (полное дублирование)
Оригинальная аудиодорожка: английский
Cубтитры: русский, английский

Режиссер: Стивен Хопкинс / Stephen Hopkins

В ролях:
Уильям Хёрт, Мими Роджерс, Лэйси Чэберт, Хэзер Грэм, Джек Джонсон, Гари Олдман, Мэтт ЛеБлан, Джаред Харрис, Марк Годдар, Ленни Джеймс...

Роли дублировали:
Алексей Золотницкий, Светлана Старикова, Нина Лунева, Нина Тобилевич, Татьяна Весёлкина...

Описание:
Действие происходит в 2058 году, когда жить на Земле людям осталось не более двадцати лет — истощилось все. Выдающийся ученый Джон Робинсон и его семья отправляются на суперсовременном звездолете на далекую планету Альфа-прим, пригодную для обитания, чтобы построить там гиперворота, через которые будет осуществлена эвакуация человечества. Экстремисты подсылают на борт коварного доктора Смита, чтобы тот уничтожил семью Робинсонов и сам корабль. Случайно оставшись на корабле, чтобы не погибнуть, Смит будит Робинсонов и майора Уэста, лихого боевого пилота. Чтобы избежать столкновения с Солнцем, майор включает гипердвигатель, и звездолет оказывается затерянным в неизвестной доселе части Космоса…

Исходник: BDRemux 1080p
Тип релиза: BDRip
Контейнер: AVI

Видео: 720x304 (2.35:1), 23,976 fps, XviD ~ 964 kbps avg, 0.184 bit/pixel
Аудио: 48 kHz, Dolby Digital AC3 2.0, 192 kbps DUB
Аудио: 48 kHz, Dolby Digital AC3 5.1, 448 kbps Английский
Субтитры: SoftSub (srt)
Раздача от:

Общее
Полное имя : Zaterjannye.v.kosmose.1998.BDRip_[New-team]_by_AVP_Studio.avi
Формат : AVI
Формат/Информация : Audio Video Interleave
Размер файла : 1,46 Гбайт
Продолжительность : 2 ч. 9 м.
Общий поток : 1618 Кбит/сек
Программа кодирования : VirtualDubModRus 1.5.10.2 (build 2542/release)
Библиотека кодирования : VirtualDubMod build 2542/release

Видео
Идентификатор : 0
Формат : MPEG-4 Visual
Профиль формата : Advanced Simple@L5
Параметр BVOP формата : 1
Параметр QPel формата : Нет
Параметр GMC формата : Без точки перехода
Параметр матрицы формата : Выборочная
Идентификатор кодека : XVID
Идентификатор кодека/Подсказка : XviD
Продолжительность : 2 ч. 9 м.
Битрейт : 964 Кбит/сек
Ширина : 720 пикселей
Высота : 304 пикселя
Соотношение сторон : 2,35:1
Частота кадров : 23,976 кадра/сек
Цветовое пространство : YUV
Субдискретизация насыщенности : 4:2:0
Битовая глубина : 8 бит
Тип развёртки : Прогрессивная
Метод сжатия : С потерями
Бит/(Пиксели*Кадры) : 0.184
Размер потока : 892 Мбайт (60%)
Библиотека кодирования : XviD 73

Аудио #1
Идентификатор : 1
Формат : AC-3
Формат/Информация : Audio Coding 3
Расширение режима : CM (complete main)
Параметр Endianness формата : Big
Идентификатор кодека : 2000
Продолжительность : 2 ч. 9 м.
Вид битрейта : Постоянный
Битрейт : 192 Кбит/сек
Каналы : 2 канала
Расположение каналов : Front: L R
Частота : 48,0 КГц
Битовая глубина : 16 бит
Метод сжатия : С потерями
Размер потока : 178 Мбайт (12%)
Выравнивание : Разделение по промежуткам
Продолжительность промежутка : 42 мс. (1,00 видеокадр)
Время предзагрузки промежутка : 500 мс.

Аудио #2
Идентификатор : 2
Формат : AC-3
Формат/Информация : Audio Coding 3
Расширение режима : CM (complete main)
Параметр Endianness формата : Big
Идентификатор кодека : 2000
Продолжительность : 2 ч. 9 м.
Вид битрейта : Постоянный
Битрейт : 448 Кбит/сек
Каналы : 6 каналов
Расположение каналов : Front: L C R, Side: L R, LFE
Частота : 48,0 КГц
Битовая глубина : 16 бит
Метод сжатия : С потерями
Размер потока : 415 Мбайт (28%)
Выравнивание : Разделение по промежуткам
Продолжительность промежутка : 42 мс. (1,00 видеокадр)
Время предзагрузки промежутка : 500 мс



Скачать Затерянные.в.космосе.Lost.in.Space.(Стивен.Хопкинс).[1998.фантастика.боевик.триллер.приключения.BDRip].[Dub]+[Оригинал]+[Sub]x2.torrent без регистрации
Золото ЗОЛОТАЯ РАЗДАЧА! СКАЧАННОЕ НЕ ЗАСЧИТЫВАЕТСЯ! Золото
Дата: Зарегистрирован   [ Тип: внешний ] Как тут cкачать?
MAGNET ссылка
MAGNET ссылка


Скачать .torrent

16 KB

Статус: проверено DHT
Скачан: торрент - 134 раз, раздача полностью - 63 раз
Размер: 1,46 GB
Оценка:  5 (Голосов: 1)
Поблагодарили: 1
Поделиться ссылкой на эту раздачу с друзьями:
В контактеFacebookОдноклассникиTwitterLivejournalМой МирLiveinternet
 

 
Показать сообщения:    


Вы не можете начинать темы
Вы не можете отвечать на сообщения
Вы не можете редактировать свои сообщения
Вы не можете удалять свои сообщения
Вы не можете голосовать в опросах
Вы не можете прикреплять файлы к сообщениям
Вы можете скачивать файлы