Loading...
Error

Скачать Индиана Джонс: В поисках утраченного ковчега / Indiana Jones: Raiders of the Lost Ark (Стивен Спилберг / Steven Spielberg) [1981, боевик, приключения, BDRip] 3x[AVO] (Гаврилов - (самый ранний) + (ранний) + (поздний)) + [Orig Eng] + Sub торрент без регистрации

 
Статистика раздачи
Размер:  2,34 GB   |    Скачан:  127 раз
Сидов:  1  [  0 KB/s  ]  
 
Автор Сообщение

leon030982

[] 

Индиана Джонс: В поисках утраченного ковчега / Indiana Jones: Raiders of the Lost Ark

Год выпуска: 1981
Страна: США
Жанр: боевик, приключения
Продолжительность: 01:55:18
Перевод #1: Авторский (одноголосый закадровый) [Андрей Гаврилов] (самый ранний) с VHS
(Похитители затерянного ковчега)
Перевод #2: Авторский (одноголосый закадровый) [Андрей Гаврилов] (ранний)
(никак не перевел название)
Перевод #3: Авторский (одноголосый закадровый) [Андрей Гаврилов] (поздний)
(Похитители затерянного ковчега)
Cубтитры: русские + английские
Формат субтитров: softsub (SRT)
Доп. информация о субтитрах: русские, английские (полные, SDH)
Оригинальная аудиодорожка: английский

Режиссер: Стивен Спилберг / Steven Spielberg

В ролях: Харрисон Форд, Карен Аллен, Пол Фримен, Рональд Лейси, Джон Рис-Дэвис, Денхолм Эллиот, Альфред Молина, Вольф Калер, Энтони Хиггинс, Вик Тэблиан
Описание: Известный археолог и специалист по оккультным наукам доктор Джонс получает опасное задание от правительства США. Он должен отправиться на поиски уникальной реликвии — священного Ковчега. Но Индиана и не подозревает, что аналогичный приказ уже получили тайные агенты Адольфа Гитлера…
Этим потрясающим фильмом продюсер Джордж Лукас и режиссер Стивен Спилберг положили начало саги о странствиях благородного доктора Джонса по всевозможным уголкам земного шара.

Сэмпл (в семпле - три Гаврилова + оригинал)

Качество видео: BDRip от HQCLUB (источник: HDClub&Bluebird / Blu-Ray / 1080p)
Формат видео: AVI
Видео кодек: XviD
Аудио кодек: AC3
Видео: 720x304 (2.37:1), 23.976 fps, XviD build 65 ~1872 kbps avg, 0.36 bit/pixel
Аудио: 48 kHz, AC3 Dolby Digital, 2/0 (L,R) ch, ~192 kbps avg - самый ранний
Аудио 2: 48 kHz, AC3 Dolby Digital, 2/0 (L,R) ch, ~192 kbps avg - ранний
Аудио 3: 48 kHz, AC3 Dolby Digital, 2/0 (L,R) ch, ~192 kbps avg - поздний (отдельно)
Аудио 4: 48 kHz, AC3 Dolby Digital, 3/2 (L,C,R,l,r) + LFE ch, ~448 kbps avg eng

Цитата:

Дорожка с переводом А. Гаврилова ремастирована, синхронизирована и наложена ale_x2008 при помощи iZotope RX2, Adobe Audition, Sony Vegas и VirtualDubMod.
Восстановлен правильный тон переводчика.

Также подогнаны две другие дорожки Гаврилова (спасибо ale_x2008 )

За оцифрованную с VHS дорожку с новым вариантом раннего перевода мэтра благодарим - ermak1990
Индиана Джонс. В поисках затерянного ковчега - Raiders of the Lost Ark\Raiders of the Lost Ark.avi
Format : AVI
Format/Info : Audio Video Interleave
Format profile : OpenDML
File size : 2.18 GiB
Duration : 1h 55mn
Overall bit rate : 2 711 Kbps
Movie name : Индиана Джонс: В поисках утраченного ковчега / Indiana Jones: Raiders of the Lost Ark (1981) BDRip
Director : sociolog_melvas
Genre : боевик, приключения
Writing application : VirtualDubMod 1.5.10.2 (build 2540/release)
Writing library : VirtualDubMod build 2540/release
Comment : 22.10.2012
Video
ID : 0
Format : MPEG-4 Visual
Format profile : Advanced Simple@L5
Format settings, BVOP : 1
Format settings, QPel : No
Format settings, GMC : No warppoints
Format settings, Matrix : Custom
Codec ID : XVID
Codec ID/Hint : XviD
Duration : 1h 55mn
Bit rate : 1 855 Kbps
Width : 720 pixels
Height : 304 pixels
Display aspect ratio : 2.35:1
Frame rate : 23.976 fps
Color space : YUV
Chroma subsampling : 4:2:0
Bit depth : 8 bits
Scan type : Progressive
Compression mode : Lossy
Bits/(Pixel*Frame) : 0.353
Stream size : 1.49 GiB (68%)
Writing library : XviD 65
Audio #1
ID : 1
Format : AC-3
Format/Info : Audio Coding 3
Mode extension : CM (complete main)
Format settings, Endianness : Big
Codec ID : 2000
Duration : 1h 55mn
Bit rate mode : Constant
Bit rate : 192 Kbps
Channel(s) : 2 channels
Channel positions : Front: L R
Sampling rate : 48.0 KHz
Bit depth : 16 bits
Compression mode : Lossy
Stream size : 158 MiB (7%)
Alignment : Split accross interleaves
Interleave, duration : 42 ms (1.00 video frame)
Interleave, preload duration : 500 ms
Audio #2
ID : 2
Format : AC-3
Format/Info : Audio Coding 3
Mode extension : CM (complete main)
Format settings, Endianness : Big
Codec ID : 2000
Duration : 1h 55mn
Bit rate mode : Constant
Bit rate : 192 Kbps
Channel(s) : 2 channels
Channel positions : Front: L R
Sampling rate : 48.0 KHz
Bit depth : 16 bits
Compression mode : Lossy
Stream size : 158 MiB (7%)
Alignment : Split accross interleaves
Interleave, duration : 42 ms (1.00 video frame)
Interleave, preload duration : 500 ms
Audio #3
ID : 3
Format : AC-3
Format/Info : Audio Coding 3
Mode extension : CM (complete main)
Format settings, Endianness : Big
Codec ID : 2000
Duration : 1h 55mn
Bit rate mode : Constant
Bit rate : 448 Kbps
Channel(s) : 6 channels
Channel positions : Front: L C R, Side: L R, LFE
Sampling rate : 48.0 KHz
Bit depth : 16 bits
Compression mode : Lossy
Stream size : 370 MiB (17%)
Alignment : Split accross interleaves
Interleave, duration : 42 ms (1.00 video frame)
Interleave, preload duration : 500 ms



Скачать Индиана.Джонс.В.поисках.утраченного.ковчега.Indiana.Jones.Raiders.of.the.Lost.Ark.(Стивен.Спилберг.Steven.Spielberg).[1981.боевик.приключения.BDRip].3x[AVO].(Гаврилов.-.(самый.ранний).+.(ранний).+.(поздний)).+.[Orig.Eng].+.Sub.torrent без регистрации
Золото ЗОЛОТАЯ РАЗДАЧА! СКАЧАННОЕ НЕ ЗАСЧИТЫВАЕТСЯ! Золото
Дата: Зарегистрирован   [ Тип: внутренний ] Как тут cкачать?
MAGNET ссылка
MAGNET ссылка


Скачать .torrent

13 KB

Статус: проверено DHT
Скачан: торрент - 127 раз, раздача полностью - 73 раз
Размер: 2,34 GB
Оценка:  5 (Голосов: 2)
Поблагодарили: 4
Поделиться ссылкой на эту раздачу с друзьями:
В контактеFacebookОдноклассникиTwitterLivejournalМой МирLiveinternet
 

 
Показать сообщения:    


Вы не можете начинать темы
Вы не можете отвечать на сообщения
Вы не можете редактировать свои сообщения
Вы не можете удалять свои сообщения
Вы не можете голосовать в опросах
Вы не можете прикреплять файлы к сообщениям
Вы можете скачивать файлы