Loading...
Error

Скачать Афера Томаса Крауна / The Thomas Crown Affair (Норман Джюисон) [1968, триллер, драма, мелодрама, криминал, BDRip-AVC] [MVO]x2+[AVO]+[Оригинал]+[Sub] торрент без регистрации

 
Статистика раздачи
Размер:  3,58 GB   |    Скачан:  117 раз
Сидов:  1  [  0 KB/s  ]  
 
Автор Сообщение

Marsianka

[] 

Афера Томаса Крауна / The Thomas Crown Affair
Страна: США
Жанр: триллер, драма, мелодрама, криминал
Год выпуска: 1968
Продолжительность: 01:42:21

Режиссер: Норман Джюисон

В ролях: Стив МакКуин, Фэй Данауэй, Пол Бурк, Джек Уэстон, Бифф МакГуайр, Эддисон Пауэлл, Астрид Хирен, Гордон Пинсент, Яфет Котто, Сидни Армус

Описание: Главный герой хладнокровно задумывает и осуществляет идеальное ограбление банка, которое одно само смотрится с наслаждением. Ограбление расследует следователь страховой компании, ставшая жертвой очарования Стива, и, следовательно, его упустившая...



Доп. информация: за Гаврилова благодарим Goldtwait и меценатов, за работу над дорогой большое спасибо Linger babe
Исходник: Афера Томаса Крауна / The Thomas Crown Affair (1968) 1080p BD-Remux by lizing48
Качество видео: BDRip-AVC | sample
Формат видео: MKV
Видео кодек: x264
Видео: AVC 1104x598 (1.85:1), 23.976 fps, ~4240 Kbps, 0.26 bit/pixel
Перевод#1: Профессиональный (многоголосый закадровый) | DVD Магия
Перевод#2: Профессиональный (многоголосый закадровый) | НТВ+
Перевод#3: Авторский (одноголосый закадровый), А. Гаврилов (отдельно)
Cубтитры: английские
Оригинальная аудиодорожка: английский
Аудио #1: Russian AC3 2ch 48kHz 192Kbps | MVO DVD Магия
Аудио #2: Russian AC3 2ch 48kHz 192Kbps | MVO НТВ+
Аудио #3: English AC3 2ch 48kHz 192Kbps | Original
Аудио #4: Russian AC3 2ch 48kHz 192Kbps | AVO Гаврилов (отдельным файлом)
Формат субтитров: softsub (SRT)
Главы: есть, подписаны

General
Complete name : E:...The.Thomas.Crown.Affair.1968.BDRip.x264.DD2.0.Rus.Eng-E76.mkv
Format : Matroska
Format version : Version 4 / Version 2
File size : 3.45 GiB
Duration : 1h 42mn
Overall bit rate : 4 819 Kbps
Movie name : The.Thomas.Crown.Affair.1968.BDRip.x264.DD2.0.Rus.Eng-E76
Encoded date : UTC 2013-05-10 11:14:02
Writing application : mkvmerge v6.1.0 ('Old Devil') built on Mar 2 2013 14:32:37
Writing library : libebml v1.3.0 + libmatroska v1.4.0

Video
ID : 1
Format : AVC
Format/Info : Advanced Video Codec
Format profile : High@L4.1
Format settings, CABAC : Yes
Format settings, ReFrames : 10 frames
Codec ID : V_MPEG4/ISO/AVC
Duration : 1h 42mn
Bit rate : 4 148 Kbps
Width : 1 104 pixels
Height : 598 pixels
Display aspect ratio : 1.85:1
Frame rate mode : Constant
Frame rate : 23.976 fps
Color space : YUV
Chroma subsampling : 4:2:0
Bit depth : 8 bits
Scan type : Progressive
Bits/(Pixel*Frame) : 0.262
Stream size : 2.97 GiB (86%)
Title : Encode by Enclave76
Writing library : x264 core 129 r2230kMod 1cffe9f
Encoding settings : cabac=1 / ref=10 / deblock=1:-3:-3 / analyse=0x3:0x113 / me=umh / subme=11 / psy=1 / fade_compensate=0.00 / psy_rd=0.97:0.03 / mixed_ref=1 / me_range=48 / chroma_me=1 / trellis=2 / 8x8dct=1 / cqm=0 / deadzone=21,11 / fast_pskip=1 / chroma_qp_offset=-3 / threads=6 / lookahead_threads=1 / sliced_threads=0 / nr=0 / decimate=1 / interlaced=0 / bluray_compat=0 / constrained_intra=0 / bframes=14 / b_pyramid=2 / b_adapt=2 / b_bias=0 / direct=1 / weightb=1 / open_gop=0 / weightp=2 / keyint=240 / keyint_min=23 / scenecut=40 / intra_refresh=0 / rc_lookahead=40 / rc=crf / mbtree=0 / crf=20.5000 / qcomp=0.65 / qpmin=0 / qpmax=69 / qpstep=4 / vbv_maxrate=50000 / vbv_bufsize=62500 / crf_max=0.0 / nal_hrd=none / ip_ratio=1.40 / pb_ratio=1.10 / aq=3:0.95
Language : English
Default : No
Forced : No
Matrix coefficients : BT.709

Audio #1
ID : 2
Format : AC-3
Format/Info : Audio Coding 3
Mode extension : CM (complete main)
Format settings, Endianness : Big
Codec ID : A_AC3
Duration : 1h 42mn
Bit rate mode : Constant
Bit rate : 192 Kbps
Channel(s) : 2 channels
Channel positions : Front: L R
Sampling rate : 48.0 KHz
Bit depth : 16 bits
Compression mode : Lossy
Stream size : 141 MiB (4%)
Title : MVO DVD Magia
Language : Russian
Default : Yes
Forced : No

Audio #2
ID : 3
Format : AC-3
Format/Info : Audio Coding 3
Mode extension : CM (complete main)
Format settings, Endianness : Big
Codec ID : A_AC3
Duration : 1h 42mn
Bit rate mode : Constant
Bit rate : 192 Kbps
Channel(s) : 2 channels
Channel positions : Front: L R
Sampling rate : 48.0 KHz
Bit depth : 16 bits
Compression mode : Lossy
Stream size : 141 MiB (4%)
Title : MVO NTV+
Language : Russian
Default : No
Forced : No

Audio #3
ID : 4
Format : AC-3
Format/Info : Audio Coding 3
Mode extension : CM (complete main)
Format settings, Endianness : Big
Codec ID : A_AC3
Duration : 1h 42mn
Bit rate mode : Constant
Bit rate : 192 Kbps
Channel(s) : 2 channels
Channel positions : Front: L R
Sampling rate : 48.0 KHz
Bit depth : 16 bits
Compression mode : Lossy
Stream size : 141 MiB (4%)
Title : Original
Language : English
Default : No
Forced : No

Text #1
ID : 5
Format : UTF-8
Codec ID : S_TEXT/UTF8
Codec ID/Info : UTF-8 Plain Text
Language : English
Default : No
Forced : No

Text #2
ID : 6
Format : UTF-8
Codec ID : S_TEXT/UTF8
Codec ID/Info : UTF-8 Plain Text
Title : SDH
Language : English
Default : No
Forced : No

Menu
00:00:00.000 : en:Logo / Title / Interview
00:05:56.939 : en:The Wheeler Dealer
00:08:07.737 : en:Puzzling Out A Plot
00:13:49.203 : en:Elevated Bank Heist
00:18:59.596 : en:The Getaway
00:22:01.987 : en:Drop Off / Pick Up
00:25:32.197 : en:A Toast To A Genius
00:27:40.617 : en:Investigating Beauty
00:29:34.939 : en:Pressing Police
00:31:13.121 : en:Nothing To Declare
00:33:21.582 : en:Swiss Deposit
00:34:52.340 : en:Insurance Pays
00:35:47.979 : en:Meeting Miss Vicki
00:37:33.084 : en:Betting On The Green
00:39:39.043 : en:Earning Her Keep
00:41:07.673 : en:THE WINDMILLS OF YOUR MIND
00:43:56.759 : en:Smoking Out Answers
00:46:13.103 : en:"What's His Name?"
00:48:03.672 : en:Polo Play
00:50:32.487 : en:Artful Headhunting
00:56:21.336 : en:Finking On Your Man
00:57:28.403 : en:Hot-Wired Kidnapping
00:59:13.883 : en:Goodwill Bribe
01:02:29.746 : en:Icy Round Three
01:06:28.442 : en:Castle / Chess / Mating
01:16:57.821 : en:Dune Buggy Romance
01:20:35.664 : en:Fighting Back
01:27:18.107 : en:Turning Up The Heat
01:29:55.098 : en:"I Can Do It Again!"
01:33:25.766 : en:"The Last Supper"
01:36:40.336 : en:Cemetary Surprise
01:41:36.381 : en:End Credits

--[NoImage] x264 [info]: frame I:930 Avg QP:18.11 size: 73312
--[NoImage] x264 [info]: frame P:26475 Avg QP:20.51 size: 29613
--[NoImage] x264 [info]: frame B:119834 Avg QP:21.12 size: 20056
--[NoImage] x264 [info]: consecutive B-frames: 1.1% 1.1% 4.0% 13.2% 12.3% 38.0% 9.5% 7.9% 4.0% 2.1% 2.1% 3.2% 0.7% 0.4% 0.4%
--[NoImage] x264 [info]: kb/s:4240.99



Скачать Афера.Томаса.Крауна.The.Thomas.Crown.Affair.(Норман.Джюисон).[1968.триллер.драма.мелодрама.криминал.BDRip-AVC].[MVO]x2+[AVO]+[Оригинал]+[Sub].torrent без регистрации
Золото ЗОЛОТАЯ РАЗДАЧА! СКАЧАННОЕ НЕ ЗАСЧИТЫВАЕТСЯ! Золото
Дата: Зарегистрирован   [ Тип: внутренний ] Как тут cкачать?
MAGNET ссылка
MAGNET ссылка


Скачать .torrent

19 KB

Статус: проверено DHT
Скачан: торрент - 117 раз, раздача полностью - 0 раз
Размер: 3,58 GB
Оценка:  - (Голосов: 0)
Поблагодарили: 2
Поделиться ссылкой на эту раздачу с друзьями:
В контактеFacebookОдноклассникиTwitterLivejournalМой МирLiveinternet
 

 
Показать сообщения:    


Вы не можете начинать темы
Вы не можете отвечать на сообщения
Вы не можете редактировать свои сообщения
Вы не можете удалять свои сообщения
Вы не можете голосовать в опросах
Вы не можете прикреплять файлы к сообщениям
Вы можете скачивать файлы