Loading...
Error

Скачать Американская Одиссея / American Odyssey (сезон 01) (Джэми Пэйн, Питер Хортон) [2015, триллер, драма, WEB-DL] [1080p] 2x[MVO (LostFilm, NewStudio)]+[Eng]+[Sub Eng] торрент без регистрации

 
Статистика раздачи
Размер:  24,62 GB   |    Скачан:  214 раз
Сидов:  1  [  0 KB/s  ]  
 
Автор Сообщение

МихаНЕзатор

[] 

Информация о фильме
Название: Американская Одиссея
Оригинальное название: American Odyssey
Год выхода: 2015
Жанр: триллер, драма
Режиссер: Джэми Пэйн, Питер Хортон

В ролях: Анна Фрил, ДжонДжош Ромаро, Раджив Пахуджа, Брендан Иган, Джейн Ходишелл, Адевале Акинойе-Агбаже, Шерман Огастас, Джейсон Бабински и другие.

О фильме: Политический триллер о разваливающейся на части жизни женщины-солдата, корпоративного адвоката и политического деятеля. Они оказываются за кулисами военно-промышленного заговора, виновником которого является американская корпорация, связанная с Аль-Каидой.



Страна: США
Продолжительность: ~ 00:52:00
Перевод:
Профессиональный (многоголосый закадровый) LostFilm
Профессиональный (многоголосый закадровый) NewStudio

Файл
Кодек: AVC/H.264
Качество: WEB-DL 1080p
Видео: 1920x1080 (1.778), 23.976 fps, ~ 4792 kbps , 0.096 bit/pixel
Звук:
AC-3, 48 KHz, 6 ch, 384 kbps | LostFilm
AC-3, 48 KHz, 6 ch, 384 kbps | NewStudio
AC-3, 48 KHz, 6 ch, 384 kbps | original
Субтитры: английские

Релиз от: Skyns61

АНОНСЫ ПОПУЛЯРНЫХ РАЗДАЧ


Торрент обновлён, добавлена 13-я серия!

01. Пропавшая без вести /Gone Elvis
02. В пути /Oscar Mike
03. Двойное убийство /Drop King
04. В обличии врага /Tango Uniform
05. Побег /Beat Feet
06. Напарник /Wingman
07. Салага /Soup Sandwich
08. Катитесь к чёрту, вы сами по себе /Kmag Yoyo
09. Отвали, я на задании! /Figmo
10. Что делать с полудохлым? /Fubar Bundy
11. Наживка /Gingerbread
12. Отступление /Bug Out
13 Настоящий мир /Real World

Монтаж, работа со звуком: Skyns61
Выделенный Voiceover от «LostFilm» был наложен на центр оригинального AC3.

Общее
Уникальный идентификатор : 199750443068731408690440000312372281558 (0x964689356663ED8394B2E159058AC0D6)
Полное имя : G:FilmsAmerican.Odyssey.S01.1080p.WEB-DL.LNBAmerican.Odyssey.S01E01.1080p.WEB-DL.3xRus.eng.DD5.1.mkv
Формат : Matroska
Версия формата : Version 4 / Version 2
Размер файла : 2,38 Гбайт
Продолжительность : 52 м.
Общий поток : 6456 Кбит/сек
Дата кодирования : UTC 2015-04-28 05:45:28
Программа кодирования : mkvmerge v7.8.0 ('River Man') 64bit built on Mar 27 2015 16:31:37
Библиотека кодирования : libebml v1.3.1 + libmatroska v1.4.2
_STATISTICS_WRITING_APP : mkvmerge v7.8.0 ('River Man') 64bit built on Mar 27 2015 16:31:37
_STATISTICS_WRITING_DATE_UTC : 2015-04-28 05:45:28
_STATISTICS_TAGS : BPS DURATION NUMBER_OF_FRAMES NUMBER_OF_BYTES
DURATION : 00:52:42.720000000
NUMBER_OF_FRAMES : 98835
NUMBER_OF_BYTES : 151810560

Видео
Идентификатор : 1
Формат : AVC
Формат/Информация : Advanced Video Codec
Профиль формата : High@L4.0
Параметр CABAC формата : Да
Параметр ReFrames формата : 4 кадра
Идентификатор кодека : V_MPEG4/ISO/AVC
Продолжительность : 52 м.
Битрейт : 4792 Кбит/сек
Ширина : 1920 пикселей
Высота : 1080 пикселей
Соотношение сторон : 16:9
Режим частоты кадров : Постоянный
Частота кадров : 23,976 кадра/сек
Цветовое пространство : YUV
Субдискретизация насыщенности : 4:2:0
Битовая глубина : 8 бит
Тип развёртки : Прогрессивная
Бит/(Пиксели*Кадры) : 0.096
Размер потока : 1,76 Гбайт (74%)
Язык : English
Default : Да
Forced : Нет
Основные цвета : BT.709
Характеристики трансфера : BT.709
Коэффициенты матрицы : BT.709

Аудио #1
Идентификатор : 2
Формат : AC-3
Формат/Информация : Audio Coding 3
Расширение режима : CM (complete main)
Параметр Endianness формата : Big
Идентификатор кодека : A_AC3
Продолжительность : 52 м.
Вид битрейта : Постоянный
Битрейт : 384 Кбит/сек
Каналы : 6 каналов
Расположение каналов : Front: L C R, Side: L R, LFE
Частота : 48,0 КГц
Битовая глубина : 16 бит
Метод сжатия : С потерями
Размер потока : 145 Мбайт (6%)
Заголовок : LostFilm 5.1
Язык : Russian
Default : Да
Forced : Нет

Аудио #2
Идентификатор : 3
Формат : AC-3
Формат/Информация : Audio Coding 3
Расширение режима : CM (complete main)
Параметр Endianness формата : Big
Идентификатор кодека : A_AC3
Продолжительность : 52 м.
Вид битрейта : Постоянный
Битрейт : 384 Кбит/сек
Каналы : 6 каналов
Расположение каналов : Front: L C R, Side: L R, LFE
Частота : 48,0 КГц
Битовая глубина : 16 бит
Метод сжатия : С потерями
Размер потока : 145 Мбайт (6%)
Заголовок : NewStudio 5.1
Язык : Russian
Default : Нет
Forced : Нет

Аудио #3
Идентификатор : 4
Формат : AC-3
Формат/Информация : Audio Coding 3
Расширение режима : CM (complete main)
Параметр Endianness формата : Big
Идентификатор кодека : A_AC3
Продолжительность : 52 м.
Вид битрейта : Постоянный
Битрейт : 384 Кбит/сек
Каналы : 6 каналов
Расположение каналов : Front: L C R, Side: L R, LFE
Частота : 48,0 КГц
Битовая глубина : 16 бит
Метод сжатия : С потерями
Размер потока : 145 Мбайт (6%)
Заголовок : BaibaKo 5.1
Язык : Russian
Default : Нет
Forced : Нет

Аудио #4
Идентификатор : 5
Формат : AC-3
Формат/Информация : Audio Coding 3
Расширение режима : CM (complete main)
Параметр Endianness формата : Big
Идентификатор кодека : A_AC3
Продолжительность : 52 м.
Вид битрейта : Постоянный
Битрейт : 384 Кбит/сек
Каналы : 6 каналов
Расположение каналов : Front: L C R, Side: L R, LFE
Частота : 48,0 КГц
Битовая глубина : 16 бит
Метод сжатия : С потерями
Размер потока : 145 Мбайт (6%)
Заголовок : original 5.1
Язык : English
Default : Нет
Forced : Нет

Текст
Идентификатор : 6
Формат : UTF-8
Идентификатор кодека : S_TEXT/UTF8
Идентификатор кодека/Информация : UTF-8 Plain Text
Заголовок : CC
Язык : English
Default : Нет
Forced : Нет

Когда раздача ведётся путём добавления новых серий, при каждом добавлении создётся новый торрент. Чтобы начать докачку новой серии, пользователям необходимо сделать следующее:
(1) остановить скачивание,
(2) удалить старый торрент у себя из клиента (старые серии удалять не надо),
(3) скачать новый торрент и запустить его у себя в клиенте вместо старого, при этом указать клиенту путь в старую папку, куда и должно происходить скачивание новых серий.
Ваш клиент при этом должен произвести хеширование (проверку) старой папки (если не производит сам - помогите ему сделать это), и будет докачивать только те серии, которых у вас ещё нет. Старые серии при этом не удаляются, а продолжают раздаваться!
Eсли вы уже удалили старые серии, то предотвратить повторную закачку старых серий можно, отжав галочку в соответсвующих местах при запуске нового торрента. По возможности, желательно не удалять старые серии как можно дольше, чтобы релизёр не столько продолжал раздавать старые серии, а смог сконцентрироваться на новых.



Скачать Американская.Одиссея.American.Odyssey.(сезон.01).(Джэми.Пэйн.Питер.Хортон).[2015.триллер.драма.WEB-DL].[1080p].2x[MVO.(LostFilm.NewStudio)]+[Eng]+[Sub.Eng].torrent без регистрации
Золото ЗОЛОТАЯ РАЗДАЧА! СКАЧАННОЕ НЕ ЗАСЧИТЫВАЕТСЯ! Золото
Дата: Зарегистрирован   [ Тип: внутренний ] Как тут cкачать?
MAGNET ссылка
MAGNET ссылка


Скачать .torrent

64 KB

Статус: проверено DHT
Скачан: торрент - 214 раз, раздача полностью - 0 раз
Размер: 24,62 GB
Оценка:  - (Голосов: 0)
Поблагодарили: 0
Поделиться ссылкой на эту раздачу с друзьями:
В контактеFacebookОдноклассникиTwitterLivejournalМой МирLiveinternet
 

 
Показать сообщения:    


Вы не можете начинать темы
Вы не можете отвечать на сообщения
Вы не можете редактировать свои сообщения
Вы не можете удалять свои сообщения
Вы не можете голосовать в опросах
Вы не можете прикреплять файлы к сообщениям
Вы можете скачивать файлы