Loading...
Error

Скачать Привидение Чарли / Charlie's Ghost Story (Энтони Эдвардс Anthony Edwards) [1995, фэнтези, комедия, приключения, DVDRip] [DVO] (Фортуна-Фильм) + [Orig] Eng торрент без регистрации

 
Статистика раздачи
Размер:  1,48 GB   |    Скачан:  135 раз
Сидов:  1  [  0 KB/s  ]  
 
Автор Сообщение

leon030982

[] 

Привидение Чарли / Charlie's Ghost Story

Год выпуска: 1995
Страна: США
Жанр: фэнтези, комедия, приключения
Продолжительность: 01:28:43
Перевод: Профессиональный (двухголосый, закадровый) [Фортуна-Фильм]
Cубтитры: нет
Оригинальная аудиодорожка: английский

Режиссер: Энтони Эдвардс Anthony Edwards

В ролях: Трентон Найт, Чич Марин, Энтони Эдвардс, Чарльз Роккет, Линда Фиорентино, Роберт Хай Гормен, Дафна Зунига, Вероника Лорен, Дж.Т. Уолш, Дин Кэмерон

Описание: Археолог находит место, где известный путешественник Коронадо погиб, попав в ловушку. Он привозит останки путешественника в музей, что заставляет Коронадо "пробудится" и выбрать сына археолога, для того чтобы тот помог ему похоронить кости в надлежащем месте.

Сэмпл
Качество видео: DVDRip
Формат видео: AVI
Видео: 640x480 (1.33:1), 23.976 fps, XviD MPEG-4 ~2019 kbps avg, 0.27 bit/pixel
Аудио 1: 48 kHz, AC3 Dolby Digital, 2/0 (L,R) ch, ~192 kbps Rus
Аудио 2: 48 kHz, MPEG Layer 3, 2 ch, ~160.00 kbps avg Eng

Цитата:

За оцифровку VHS с переводом "Фортуна-Фильм" спасибо Fikaloid.
General
Complete name : C:\Charlie's Ghost Story.avi
Format : AVI
Format/Info : Audio Video Interleave
File size : 1.48 GiB
Duration : 1h 28mn
Overall bit rate : 2 386 Kbps
Writing application : VirtualDubMod 1.5.10.3 (build 2550/release)
Writing library : VirtualDubMod build 2550/release
Video
ID : 0
Format : MPEG-4 Visual
Format profile : Simple@L3
Format settings, BVOP : No
Format settings, QPel : No
Format settings, GMC : No warppoints
Format settings, Matrix : Default (H.263)
Codec ID : XVID
Codec ID/Hint : XviD
Duration : 1h 28mn
Bit rate : 2 020 Kbps
Width : 640 pixels
Height : 480 pixels
Display aspect ratio : 4:3
Frame rate : 23.976 fps
Color space : YUV
Chroma subsampling : 4:2:0
Bit depth : 8 bits
Scan type : Progressive
Compression mode : Lossy
Bits/(Pixel*Frame) : 0.274
Stream size : 1.25 GiB (85%)
Writing library : XviD 1.2.0.dev47 (UTC 2006-11-01)
Audio #1
ID : 1
Format : AC-3
Format/Info : Audio Coding 3
Mode extension : CM (complete main)
Format settings, Endianness : Big
Codec ID : 2000
Duration : 1h 28mn
Bit rate mode : Constant
Bit rate : 192 Kbps
Channel(s) : 2 channels
Channel positions : Front: L R
Sampling rate : 48.0 KHz
Bit depth : 16 bits
Compression mode : Lossy
Stream size : 122 MiB (8%)
Alignment : Split accross interleaves
Interleave, duration : 42 ms (1.00 video frame)
Interleave, preload duratio : 500 ms
Audio #2
ID : 2
Format : MPEG Audio
Format version : Version 1
Format profile : Layer 3
Mode : Joint stereo
Mode extension : MS Stereo
Codec ID : 55
Codec ID/Hint : MP3
Duration : 1h 28mn
Bit rate mode : Constant
Bit rate : 160 Kbps
Channel(s) : 2 channels
Sampling rate : 48.0 KHz
Compression mode : Lossy
Stream size : 102 MiB (7%)
Alignment : Aligned on interleaves
Interleave, duration : 42 ms (1.00 video frame)
Interleave, preload duratio : 504 ms
Writing library : LAME3.97
Encoding settings : -m j -V 4 -q 2 -lowpass 17.5 -b 160



Скачать Привидение.Чарли.Charlie's.Ghost.Story.(Энтони.Эдвардс.Anthony.Edwards).[1995.фэнтези.комедия.приключения.DVDRip].[DVO].(Фортуна-Фильм).+.[Orig].Eng.torrent без регистрации
Золото ЗОЛОТАЯ РАЗДАЧА! СКАЧАННОЕ НЕ ЗАСЧИТЫВАЕТСЯ! Золото
Дата: Зарегистрирован   [ Тип: внутренний ] Как тут cкачать?
MAGNET ссылка
MAGNET ссылка


Скачать .torrent

15 KB

Статус: проверено DHT
Скачан: торрент - 135 раз, раздача полностью - 14 раз
Размер: 1,48 GB
Оценка:  - (Голосов: 0)
Поблагодарили: 2
Поделиться ссылкой на эту раздачу с друзьями:
В контактеFacebookОдноклассникиTwitterLivejournalМой МирLiveinternet
 

 
Показать сообщения:    


Вы не можете начинать темы
Вы не можете отвечать на сообщения
Вы не можете редактировать свои сообщения
Вы не можете удалять свои сообщения
Вы не можете голосовать в опросах
Вы не можете прикреплять файлы к сообщениям
Вы можете скачивать файлы