Loading...
Error

Скачать Подозрительные лица / Обычные подозреваемые / The Usual Suspects (Брайан Сингер / Bryan Singer) [1995, триллер, драма, криминал, DVDRip] [Full Screen] 3x[AVO] (Гаврилов, Живов, Леша "Прапорщик") торрент без регистрации

 
Статистика раздачи
Размер:  2,14 GB   |    Скачан:  108 раз
Сидов:  1  [  0 KB/s  ]  
 
Автор Сообщение

leon030982

[] 

Подозрительные лица / Обычные подозреваемые / The Usual Suspects

Год выпуска: 1995
Страна: США, Германия
Жанр: триллер, драма, криминал
Продолжительность: 01:46:03
Перевод #1: Авторский (одноголосый, закадровый) [Андрей Гаврилов]
Перевод #2: Авторский (одноголосый, закадровый) [Юрий Живов]
Перевод #3: Авторский (одноголосый, закадровый) [Леша "Прапорщик"]
Cубтитры: нет

Режиссер: Брайан Сингер / Bryan Singer

В ролях: Кевин Спейси, Гэбриел Бирн, Стивен Болдуин, Чазз Пальминтери, Кевин Поллак, Бенисио Дель Торо, Пит Постлетуэйт, Сьюзи Эймис, Джанкарло Эспозито, Дэн Хедайя

Описание: Обычно, если есть преступление, есть мотив. Обычно, если проводится опознание, по крайней мере есть один подозреваемый. Но это не было обычным преступлением… Пятеро преступников столкнулись в одном необычном месте и решили прокрутить одно дельце. Но кто-то более сильный и могущественный, кто-то, чье имя пугает всех преступников мира, хочет, чтобы они поработали на него… Это не было обычным преступлением, и они — не просто подозрительные лица…



Качество видео: DVDRip
Формат видео: AVI
Видео кодек: XviD
Аудио кодек: AC3
Видео: 704x528 (1.33:1), 23.976 fps, XviD build 64 ~2049 kbps avg, 0.23 bit/pixel
Аудио#1: 48 kHz, AC3 Dolby Digital, 3/2 (L,C,R,l,r) + LFE ch, ~448 kbps - Гаврилов
Аудио#2: 48 kHz, AC3 Dolby Digital, 2/0 (L,R) ch, ~192 kbps - Живов
Аудио#3: 48 kHz, AC3 Dolby Digital, 2/0 (L,R) ch, ~192 kbps - Леша "Прапорщик"
за видеоряд спасибо Vouka, за перевод Гаврилова спасибо пользователям форума HDTracker: kondratzx; timur; Gross1978; rydanes; Xerman13; dunhill200; Semvlk; karantin66; fly32; Brown15; Tagansky; foxlight; Rolly Tyler; maximus1099; Loki; _MyxAmoP_; Chistobaev; Letyoha3; hulahup; gtjuve; vovyanskiy; Luka69; Pain_70; Tio; Vimann; Sonny Black; kleberson, за дороги Живова и Леши "Прапорщика" спасибо Just_TeMa
Полное имя : Подозрительные лица.avi
Формат : AVI
Формат/Информация : Audio Video Interleave
Профиль формата : OpenDML
Размер файла : 2,14 Гбайт
Продолжительность : 1 ч. 46 м.
Общий поток : 2888 Кбит/сек
Видео
Идентификатор : 0
Формат : MPEG-4 Visual
Профиль формата : Advanced Simple@L5
Параметр BVOP формата : 1
Параметр QPel формата : Нет
Параметр GMC формата : Без точки перехода
Параметр матрицы формата : Выборочная
Идентификатор кодека : XVID
Идентификатор кодека/Подсказка : XviD
Продолжительность : 1 ч. 46 м.
Битрейт : 2031 Кбит/сек
Ширина : 704 пикселя
Высота : 528 пикселей
Соотношение сторон : 4:3
Частота кадров : 23,976 кадра/сек
Цветовое пространство : YUV
Субдискретизация насыщенности : 4:2:0
Битовая глубина : 8 бит
Тип развёртки : Прогрессивная
Метод сжатия : С потерями
Бит/(Пиксели*Кадры) : 0.228
Размер потока : 1,50 Гбайт (70%)
Библиотека кодирования : XviD 64
Аудио #1
Идентификатор : 1
Формат : AC-3
Формат/Информация : Audio Coding 3
Расширение режима : CM (complete main)
Параметр Endianness формата : Big
Идентификатор кодека : 2000
Продолжительность : 1 ч. 46 м.
Вид битрейта : Постоянный
Битрейт : 448 Кбит/сек
Каналы : 6 каналов
Расположение каналов : Front: L C R, Side: L R, LFE
Частота : 48,0 КГц
Битовая глубина : 16 бит
Метод сжатия : С потерями
Размер потока : 340 Мбайт (16%)
Выравнивание : Разделение по промежуткам
Продолжительность промежутка : 42 мс. (1,00 видеокадр)
Время предзагрузки промежутка : 500 мс.
Заголовок : Гаврилов
Аудио #2
Идентификатор : 2
Формат : AC-3
Формат/Информация : Audio Coding 3
Расширение режима : CM (complete main)
Параметр Endianness формата : Big
Идентификатор кодека : 2000
Продолжительность : 1 ч. 46 м.
Вид битрейта : Постоянный
Битрейт : 192 Кбит/сек
Каналы : 2 канала
Расположение каналов : Front: L R
Частота : 48,0 КГц
Битовая глубина : 16 бит
Метод сжатия : С потерями
Размер потока : 146 Мбайт (7%)
Выравнивание : Разделение по промежуткам
Продолжительность промежутка : 42 мс. (1,00 видеокадр)
Время предзагрузки промежутка : 500 мс.
Заголовок : Живов
Аудио #3
Идентификатор : 3
Формат : AC-3
Формат/Информация : Audio Coding 3
Расширение режима : CM (complete main)
Параметр Endianness формата : Big
Идентификатор кодека : 2000
Продолжительность : 1 ч. 46 м.
Вид битрейта : Постоянный
Битрейт : 192 Кбит/сек
Каналы : 2 канала
Расположение каналов : Front: L R
Частота : 48,0 КГц
Битовая глубина : 16 бит
Метод сжатия : С потерями
Размер потока : 146 Мбайт (7%)
Выравнивание : Разделение по промежуткам
Продолжительность промежутка : 42 мс. (1,00 видеокадр)
Время предзагрузки промежутка : 500 мс.
Заголовок : Леша Прапорщик



Скачать Подозрительные.лица.Обычные.подозреваемые.The.Usual.Suspects.(Брайан.Сингер.Bryan.Singer).[1995.триллер.драма.криминал.DVDRip].[Full.Screen].3x[AVO].(Гаврилов.Живов.Леша."Прапорщик").torrent без регистрации
Золото ЗОЛОТАЯ РАЗДАЧА! СКАЧАННОЕ НЕ ЗАСЧИТЫВАЕТСЯ! Золото
Дата: Зарегистрирован   [ Тип: внутренний ] Как тут cкачать?
MAGNET ссылка
MAGNET ссылка


Скачать .torrent

11 KB

Статус: проверено DHT
Скачан: торрент - 108 раз, раздача полностью - 18 раз
Размер: 2,14 GB
Оценка:  - (Голосов: 0)
Поблагодарили: 2
Поделиться ссылкой на эту раздачу с друзьями:
В контактеFacebookОдноклассникиTwitterLivejournalМой МирLiveinternet
 

 
Показать сообщения:    


Вы не можете начинать темы
Вы не можете отвечать на сообщения
Вы не можете редактировать свои сообщения
Вы не можете удалять свои сообщения
Вы не можете голосовать в опросах
Вы не можете прикреплять файлы к сообщениям
Вы можете скачивать файлы