Loading...
Error

Скачать Оскорбление / The Offence (Сидни Люмет) [1972, Криминал, Триллер, Драма, HDRip] MVO торрент без регистрации

 
Статистика раздачи
Размер:  746 MB   |    Скачан:  96 раз

Полного источника не было: 1 год 6 месяцев

 
Автор Сообщение

Шкипер

[] 


Оскорбление / The Offence


Год выпуска: 1972
Выпущено: Великобритания, США (United Artists)
Жанр: Криминал, Триллер, Драма
Продолжительность: 01:56:16
Перевод: Профессиональный (многоголосый)
Субтитры: Отсутствует

Режиссер: Сидни Люмет

В ролях: Шон Коннери, Тревор Ховард, Вивьен Мерчант, Иэн Бэннен, Питер Боулз, Джон Хэллам, Ричард Мур, Энтони Сагар

Описание: За 20 лет службы в полиции детектив Джонсон повидал много такого, от чего может расстроиться психика: убийства, грабежи, изнасилования и ещё бог знает что. Однажды по время очередного допроса у него возникает нервный срыв, и он руками забивает до смерти подозреваемого в растлении малолетних. Позже, придя в себя и проанализировав происшедшее, Джонсон осознаёт, что и сам не слишком отличается от своих «клиентов». Теперь он понимает, что жить, как прежде, он уже не сможет...



[img]/images/sample.gif[/img]

Автор Рипа:

Качество: HDRip
Формат: AVI
Видео кодек: XviD
Аудио кодек: MP3
Видео: 608x368 (1.65:1), 23.976 fps, XviD build 73 ~760 kbps avg, 0.14 bit/pixel
Аудио: 48 kHz, MPEG Layer 3, 2 ch, ~128.00 kbps avg

Общее
Полное имя : D:Изготовление рипаОскорбление.1972.HDRip by Шкипер.avi
Формат : AVI
Формат/Информация : Audio Video Interleave
Размер файла : 746 Мбайт
Продолжительность : 1 ч. 56 м.
Общий поток : 898 Кбит/сек
Программа кодирования : VirtualDubModRus 1.5.10.2 (build 2542/release)
Библиотека кодирования : VirtualDubMod build 2542/release

Видео
Идентификатор : 0
Формат : MPEG-4 Visual
Профиль формата : Advanced Simple@L5
Параметр BVOP формата : 1
Параметр QPel формата : Нет
Параметр GMC формата : Без точки перехода
Параметр матрицы формата : Default (MPEG)
Идентификатор кодека : XVID
Идентификатор кодека/Подсказка : XviD
Продолжительность : 1 ч. 56 м.
Битрейт : 760 Кбит/сек
Ширина : 608 пикселей
Высота : 368 пикселей
Соотношение сторон : 1,652
Частота кадров : 23,976 кадра/сек
Цветовое пространство : YUV
Субдискретизация насыщенности : 4:2:0
Битовая глубина : 8 бит
Тип развёртки : Прогрессивная
Метод сжатия : С потерями
Бит/(Пиксели*Кадры) : 0.142
Размер потока : 632 Мбайт (85%)
Библиотека кодирования : XviD 73

Аудио
Идентификатор : 1
Формат : MPEG Audio
Версия формата : Version 1
Профиль формата : Layer 3
Режим : Joint stereo
Расширение режима : MS Stereo
Идентификатор кодека : 55
Идентификатор кодека/Подсказка : MP3
Продолжительность : 1 ч. 56 м.
Вид битрейта : Постоянный
Битрейт : 128 Кбит/сек
Каналы : 2 канала
Частота : 48,0 КГц
Метод сжатия : С потерями
Размер потока : 106 Мбайт (14%)
Выравнивание : Соединение по промежуткам
Продолжительность промежутка : 42 мс. (1,00 видеокадр)
Время предзагрузки промежутка : 504 мс.
Библиотека кодирования : LAME3.99r
Настройки программы : -m j -V 4 -q 2 -lowpass 17 -b 128





Скачать Оскорбление.The.Offence.(Сидни.Люмет).[1972.Криминал.Триллер.Драма.HDRip].MVO.torrent без регистрации
Золото ЗОЛОТАЯ РАЗДАЧА! СКАЧАННОЕ НЕ ЗАСЧИТЫВАЕТСЯ! Золото
Дата: Зарегистрирован   [ Тип: внутренний ] Как тут cкачать?
MAGNET ссылка
MAGNET ссылка


Скачать .torrent

15 KB

Статус: проверено
Скачан: торрент - 96 раз, раздача полностью - 1 раз
Размер: 746 MB
Оценка:  2 (Голосов: 1)
Поблагодарили: 1
Поделиться ссылкой на эту раздачу с друзьями:
В контактеFacebookОдноклассникиTwitterLivejournalМой МирLiveinternet
 

 
Показать сообщения:    


Вы не можете начинать темы
Вы не можете отвечать на сообщения
Вы не можете редактировать свои сообщения
Вы не можете удалять свои сообщения
Вы не можете голосовать в опросах
Вы не можете прикреплять файлы к сообщениям
Вы можете скачивать файлы