Loading...
Error

Скачать Благодетель / The Rainmaker (Френсис Форд Коппола) [1997, триллер, драма, WEB-DLRip-AVC] [MVO] торрент без регистрации

 
Статистика раздачи
Размер:  1,46 GB   |    Скачан:  116 раз
Сидов:  1  [  0 KB/s  ]  
 
Автор Сообщение

Marsianka

[] 



Информация о фильме
Название: Благодетель
Оригинальное название: The Rainmaker
Год выхода: 1997
Жанр: триллер, драма
Режиссер: Френсис Форд Коппола
В ролях: Мэтт Дэймон, Дэнни ДеВито, Клэр Дэйнс, Джон Войт, Дэнни Гловер, Мэри Кэй Плэйс, Тереза Райт, Джонни Витуорт, Рой Шайдер, Микки Рурк

О фильме: Молодому юристу Руди Бэйлору кажется, что вот - вот настанет «Звездный час» и он станет знаменитым адвокатом со своей собственной фирмой, роскошной виллой, шикарными машинами и женщинами. Но это только мечта.
И ему приходится заниматься черной, неблагодарной работой на других. Все меняется в один день, когда он наталкивается на многомиллионную аферу в страховом бизнесе, разоблачив которую, он может осуществить все свои заветные мечты...если, конечно, сможет остаться живым.



Страна: США
Продолжительность: 02:15:31
Перевод: Профессиональный (многоголосый закадровый) R5

Файл
Качество: WEB-DLRip-AVC
Видео: 960x408, 23.976 fps, x264, ~1096 kbps, 0.11 bit/pixel
Звук: 48 kHz, AC3 Dolby Digital, 3/2 (L,C,R,l,r) + LFE ch, ~448 kbps
x264 [info]: frame I:1589 Avg QP:15.26 size: 55966
x264 [info]: frame P:51066 Avg QP:18.84 size: 12051
x264 [info]: frame B:142301 Avg QP:20.67 size: 2876
x264 [info]: consecutive B-frames: 2.0% 5.6% 5.3% 69.6% 7.4% 7.3% 1.3% 0.9% 0.6%
x264 [info]: mb I I16..4: 9.5% 62.2% 28.3%
x264 [info]: mb P I16..4: 0.7% 4.7% 1.2% P16..4: 34.5% 34.6% 12.0% 0.0% 0.0% skip:12.2%
x264 [info]: mb B I16..4: 0.1% 0.4% 0.1% B16..8: 30.5% 14.5% 2.2% direct: 3.9% skip:48.3% L0:35.7% L1:50.0% BI:14.3%
Complete name : The Rainmaker.mkv
Format : Matroska
Format version : Version 2
File size : 1.46 GiB
Duration : 2h 15mn
Overall bit rate : 1 545 Kbps
Encoded date : UTC 2015-05-17 22:55:31
Writing application : mkvmerge v7.8.0 ('River Man') 32bit built on Apr 3 2015 12:11:22
Writing library : libebml v1.3.1 + libmatroska v1.4.2
Video #1
ID : 1
Format : AVC
Format/Info : Advanced Video Codec
Format profile : High@L4.1
Format settings, CABAC : Yes
Format settings, ReFrames : 9 frames
Codec ID : V_MPEG4/ISO/AVC
Duration : 2h 15mn
Bit rate : 1 096 Kbps
Width : 960 pixels
Height : 408 pixels
Display aspect ratio : 2.35:1
Frame rate mode : Constant
Frame rate : 23.976 fps
Color space : YUV
Chroma subsampling : 4:2:0
Bit depth : 8 bits
Scan type : Progressive
Bits/(Pixel*Frame) : 0.117
Stream size : 1.01 GiB (69%)
Writing library : x264 core 146 r0+2586 e393126 t_mod_Custom [8-bit@all X86]
Encoding settings : cabac=1 / ref=9 / deblock=1:-3:-3 / analyse=0x3:0x113 / me=umh / subme=11 / psy=1 / fade_compensate=0.00 / psy_rd=1.00:0.05 / mixed_ref=1 / me_range=32 / chroma_me=1 / trellis=2 / 8x8dct=1 / cqm=0 / deadzone=21,11 / fast_pskip=0 / chroma_qp_offset=-3 / threads=6 / lookahead_threads=1 / sliced_threads=0 / nr=0 / decimate=0 / interlaced=0 / bluray_compat=0 / constrained_intra=0 / fgo=0 / bframes=8 / b_pyramid=2 / b_adapt=2 / b_bias=0 / direct=3 / weightb=1 / open_gop=0 / weightp=2 / keyint=240 / keyint_min=23 / scenecut=40 / intra_refresh=0 / rc_lookahead=40 / rc=2pass / mbtree=0 / bitrate=1096 / ratetol=1.0 / qcomp=0.60 / qpmin=0:0:0 / qpmax=69:69:69 / qpstep=4 / cplxblur=20.0 / qblur=0.5 / vbv_maxrate=14000 / vbv_bufsize=14000 / nal_hrd=none / filler=0 / ip_ratio=1.40 / pb_ratio=1.30 / aq=1:1.00 / aq-sensitivity=10.00 / aq-factor=1.00:1.00:1.00 / aq2=0 / aq3=0
Default : Yes
Forced : No
Audio #2
ID : 2
Format : AC-3
Format/Info : Audio Coding 3
Mode extension : CM (complete main)
Format settings, Endianness : Big
Codec ID : A_AC3
Duration : 2h 15mn
Bit rate mode : Constant
Bit rate : 448 Kbps
Channel(s) : 6 channels
Channel positions : Front: L C R, Side: L R, LFE
Sampling rate : 48.0 KHz
Bit depth : 16 bits
Compression mode : Lossy
Stream size : 434 MiB (29%)
Default : Yes
Forced : No



Скачать Благодетель.The.Rainmaker.(Френсис.Форд.Коппола).[1997.триллер.драма.WEB-DLRip-AVC].[MVO].torrent без регистрации
Золото ЗОЛОТАЯ РАЗДАЧА! СКАЧАННОЕ НЕ ЗАСЧИТЫВАЕТСЯ! Золото
Дата: Зарегистрирован   [ Тип: внутренний ] Как тут cкачать?
MAGNET ссылка
MAGNET ссылка


Скачать .torrent

15 KB

Статус: проверено DHT
Скачан: торрент - 116 раз, раздача полностью - 9 раз
Размер: 1,46 GB
Оценка:  - (Голосов: 0)
Поблагодарили: 3
Поделиться ссылкой на эту раздачу с друзьями:
В контактеFacebookОдноклассникиTwitterLivejournalМой МирLiveinternet
 

 
Показать сообщения:    


Вы не можете начинать темы
Вы не можете отвечать на сообщения
Вы не можете редактировать свои сообщения
Вы не можете удалять свои сообщения
Вы не можете голосовать в опросах
Вы не можете прикреплять файлы к сообщениям
Вы можете скачивать файлы