Loading...
Error

Скачать Три дня в Одессе (Алексей Пиманов) [2007, криминал, детектив, история, DVDRip-AVC] торрент без регистрации

 
Статистика раздачи
Размер:  1,47 GB   |    Скачан:  138 раз
Сидов:  1  [  0 KB/s  ]  
 
Автор Сообщение

МихаНЕзатор

[] 

Информация о фильме
Оригинальное название: Три дня в Одессе
Год выпуска: 2007
Жанр: криминал, детектив, история

Режиссер: Алексей Пиманов
В ролях: Ольга Погодина, Владимир Качан, Леонид Якубович, Глафира Тарханова, Александр Макогон, Ксения Кузнецова, Дмитрий Жулин, Александр Арефьев, Георгий Тесля-Герасимов, Олег Масленников-Войтов, Евгений Еськов

О фильме: Послевоенная волна бандитизма захлестнула лежащую в руинах страну. Особенно тяжёлая ситуация сложилась в Одессе. Днём город жил своей обычной жизнью, но с наступлением сумерек из тёмных закоулков, подвалов и бандитских «малин» выползало на улицы всё самое мрачное и жестокое, что было в городе.Грабежи, убийства, воровство, проституция — стали нормой жизни для Одессы. Криминальная слава приморского города дошла до Кремля. Герои фильма, офицеры госбезопасности, отправляются в Одессу, чтобы навести порядок в городе. На проведение операции отведено три дня…

Релиз от:

Выпущено: Россия, Кинокомпания "Третья планета"
Продолжительность: 01:49:04
Язык: Русский

Файл
Качество: DVDRip-AVC
Видео: High@L4.1, ~1450 Кбит/с, 768x432
Аудио: AC3, 6 ch, 448 Кбит/с

АНОНСЫ ПОПУЛЯРНЫХ РАЗДАЧ
General
Unique ID : 12703643888610762028828617322414237524 (0x98EA20047FC939C829A3BC29E6C6754)
Complete name : F:Три дня в Одессе (2007) DVDRip-AVC.[-=DoMiNo=-].mkv
Format : Matroska
Format version : Version 4 / Version 2
File size : 1.47 GiB
Duration : 1h 49mn
Overall bit rate : 1 932 Kbps
Writing application : XviD4PSP 7.0.133
Writing library : Lavf56.15.102

Video
ID : 1
Format : AVC
Format/Info : Advanced Video Codec
Format profile : High@L4.1
Format settings, CABAC : Yes
Format settings, ReFrames : 12 frames
Codec ID : V_MPEG4/ISO/AVC
Duration : 1h 49mn
Bit rate : 1 445 Kbps
Width : 768 pixels
Height : 432 pixels
Display aspect ratio : 16:9
Frame rate mode : Constant
Frame rate : 25.000 fps
Color space : YUV
Chroma subsampling : 4:2:0
Bit depth : 8 bits
Scan type : MBAFF
Scan order : Top Field First
Bits/(Pixel*Frame) : 0.174
Stream size : 1.10 GiB (75%)
Writing library : x264 core 146 r2538M 121396c
Encoding settings : cabac=1 / ref=12 / deblock=1:-3:-3 / analyse=0x3:0x133 / me=umh / subme=10 / psy=1 / psy_rd=1,00:0,10 / mixed_ref=1 / me_range=32 / chroma_me=1 / trellis=2 / 8x8dct=1 / cqm=0 / deadzone=21,11 / fast_pskip=0 / chroma_qp_offset=-3 / threads=12 / lookahead_threads=3 / sliced_threads=0 / nr=0 / decimate=1 / interlaced=tff / bluray_compat=0 / constrained_intra=0 / bframes=11 / b_pyramid=2 / b_adapt=2 / b_bias=0 / direct=1 / weightb=1 / open_gop=0 / weightp=0 / keyint=250 / keyint_min=25 / scenecut=40 / intra_refresh=0 / rc=crf / mbtree=0 / crf=18,0 / qcomp=0,60 / qpmin=18 / qpmax=69 / qpstep=4 / ip_ratio=1,40 / pb_ratio=1,30 / aq=1:1,00
Default : Yes
Forced : No

Audio
ID : 2
Format : AC-3
Format/Info : Audio Coding 3
Mode extension : CM (complete main)
Format settings, Endianness : Big
Codec ID : A_AC3
Duration : 1h 49mn
Bit rate mode : Constant
Bit rate : 448 Kbps
Channel(s) : 6 channels
Channel positions : Front: L C R, Side: L R, LFE
Sampling rate : 48.0 KHz
Bit depth : 32 bits
Compression mode : Lossy
Stream size : 349 MiB (23%)
Language : Russian
Default : Yes
Forced : No

Menu
00:00:00.000 : :Chapter 1
00:06:58.304 : :Chapter 2
00:20:17.758 : :Chapter 3
00:27:32.119 : :Chapter 4
00:38:11.435 : :Chapter 5
00:50:04.893 : :Chapter 6
01:00:44.180 : :Chapter 7
01:09:14.713 : :Chapter 8
01:20:34.276 : :Chapter 9
01:28:00.592 : :Chapter 10
01:36:55.055 : :Chapter 11
01:45:53.330 : :Chapter 12
01:49:02.689 : :Chapter 13
01:49:03.049 : :Chapter 14



Скачать Три.дня.в.Одессе.(Алексей.Пиманов).[2007.криминал.детектив.история.DVDRip-AVC].torrent без регистрации
Золото ЗОЛОТАЯ РАЗДАЧА! СКАЧАННОЕ НЕ ЗАСЧИТЫВАЕТСЯ! Золото
Дата: Зарегистрирован   [ Тип: внутренний ] Как тут cкачать?
MAGNET ссылка
MAGNET ссылка


Скачать .torrent

15 KB

Статус: проверено DHT
Скачан: торрент - 138 раз, раздача полностью - 85 раз
Размер: 1,47 GB
Оценка:  5 (Голосов: 1)
Поблагодарили: 2
Поделиться ссылкой на эту раздачу с друзьями:
В контактеFacebookОдноклассникиTwitterLivejournalМой МирLiveinternet
 

 
Показать сообщения:    


Вы не можете начинать темы
Вы не можете отвечать на сообщения
Вы не можете редактировать свои сообщения
Вы не можете удалять свои сообщения
Вы не можете голосовать в опросах
Вы не можете прикреплять файлы к сообщениям
Вы можете скачивать файлы