Loading...
Error

Скачать Уэйворд Пайнс / Уэйуорд Пайнс / Сосны / Wayward Pines (сезон 01) (Зал Батманглидж и др.) [2015, драма, триллер, мистика, WEB-DL] [1080p] 5x[MVO (LostFilm, NewStudio, AlexFilm, BaibaKo, Fox)]+[Eng]+[Sub Rus, Eng] торрент без регистрации

 
Статистика раздачи
Размер:  23,49 GB   |    Скачан:  2132 раза
Сидов:  1  [  0 KB/s  ]  
 
Автор Сообщение

МихаНЕзатор

[] 

Информация о фильме
Название: Уэйуорд Пайнс / Сосны
Оригинальное название: Wayward Pines
Год выхода: 2015
Жанр: драма, триллер, мистика
Режиссер: Зал Батманглидж, Тим Хантер, Нимрод Антал

В ролях: Мэтт Диллон, Карла Гуджино, Тоби Джонс, Шаннин Соссамон, Рид Даймонд, Тим Гриффин, Чарли Тахэн, Джульетт Льюис, Мелисса Лео, Терренс Ховард и др.

О фильме: Агент секретной службы Итан Берк приезжает в пасторальный городок Уэйуорд Пайнс в Айдахо, чтобы найти двух пропавших коллег. Но расследование вместо ответов приносит лишь новые вопросы. Что же происходит в Уэйуорд Пайнс?



Страна: CША
Продолжительность: ~00:44:00 серия
Перевод:
Профессиональный (многоголосый закадровый) LostFilm
Профессиональный (многоголосый закадровый) NewStudio
Профессиональный (многоголосый закадровый) AlexFilm
Любительский (многоголосый закадровый) BaibaKo
Профессиональный (многоголосый закадровый) Fox

Файл
Кодек: AVC/H.264
Качество: WEB-DL 1080p
Видео: 1920x1080(1.778), 23.976 fps, ~5039 kbps avg, 0.101 bit/pixel
Звук:
Аудио rus: AC-3, 48 KHz, 6 ch, 384 kbps | AlexFilm
Аудио rus: AC-3, 48 KHz, 6 ch, 384 kbps | LostFilm
Аудио rus: AC-3, 48 KHz, 6 ch, 384 kbps | NewStudio
Аудио rus: AC-3, 48 KHz, 6 ch, 384 kbps | BaibaKo
Аудио rus: AC-3, 48 KHz, 2 ch, 192 kbps | Fox
Аудио eng: AC-3, 48 KHz, 6 ch, 384 kbps | original
Субтитры: русские (notabenoid), английские

Релиз от: Skyns61

АНОНСЫ ПОПУЛЯРНЫХ РАЗДАЧ


Торрент обновлён, добавлена 10-я серия!

01. Где рай является домом /Where Paradise Is Home
02. Прошлую жизнь не обсуждать /Do Not Discuss Your Life Before
03. Наш город, наши правила /Our Town, Our Law
04. Один из старших риэлторов решил уйти на покой /One of Our Senior Realtors Has Chosen to Retire
05. Истина /The Truth
06. Выбор /Choices
07. Предательство /Betrayal
08. Самый дружелюбный город Земли /The Friendliest Place on Earth
09. Расплата /A Reckoning
10. Цикл /Cycle

Монтаж, работа со звуком: Skyns61
Выделенный Voiceover от «LostFilm, AlexFilm» был наложен на центр оригинального AC3.
Cубтитры: notabenoid - Vito_Feed
Синхронизация субтитров: qqss44

Общее
Уникальный идентификатор : 235541459734544566582476829287029731378 (0xB133A2924AD6E0C0A955BC08A300F032)
Полное имя : G:FilmsWayward.Pines.S01.L.N.BWayward.Pines.S01E01.1080p.WEB-DL.4xRus.Eng.DD5.1.mkv
Формат : Matroska
Версия формата : Version 4 / Version 2
Размер файла : 2,24 Гбайт
Продолжительность : 45 м.
Общий поток : 7093 Кбит/сек
Дата кодирования : UTC 2015-05-17 08:53:40
Программа кодирования : mkvmerge v7.9.0 ('Birds') 64bit
Библиотека кодирования : libebml v1.3.1 + libmatroska v1.4.2
_STATISTICS_WRITING_APP : mkvmerge v7.9.0 ('Birds') 64bit
_STATISTICS_WRITING_DATE_UTC : 2015-05-17 08:53:40
_STATISTICS_TAGS : BPS DURATION NUMBER_OF_FRAMES NUMBER_OF_BYTES
DURATION : 00:42:41.490000000
NUMBER_OF_FRAMES : 682
NUMBER_OF_BYTES : 30847

Видео
Идентификатор : 1
Формат : AVC
Формат/Информация : Advanced Video Codec
Профиль формата : High@L4.0
Параметр CABAC формата : Да
Параметр ReFrames формата : 4 кадра
Идентификатор кодека : V_MPEG4/ISO/AVC
Продолжительность : 45 м.
Битрейт : 5031 Кбит/сек
Ширина : 1920 пикселей
Высота : 1080 пикселей
Соотношение сторон : 16:9
Режим частоты кадров : Постоянный
Частота кадров : 23,976 кадра/сек
Цветовое пространство : YUV
Субдискретизация насыщенности : 4:2:0
Битовая глубина : 8 бит
Тип развёртки : Прогрессивная
Бит/(Пиксели*Кадры) : 0.101
Размер потока : 1,59 Гбайт (71%)
Язык : English
Default : Да
Forced : Нет
Основные цвета : BT.709
Характеристики трансфера : BT.709
Коэффициенты матрицы : BT.709
colour_range : Limited

Аудио #1
Идентификатор : 2
Формат : AC-3
Формат/Информация : Audio Coding 3
Расширение режима : CM (complete main)
Параметр Endianness формата : Big
Идентификатор кодека : A_AC3
Продолжительность : 45 м.
Вид битрейта : Постоянный
Битрейт : 384 Кбит/сек
Каналы : 6 каналов
Расположение каналов : Front: L C R, Side: L R, LFE
Частота : 48,0 КГц
Битовая глубина : 16 бит
Метод сжатия : С потерями
Размер потока : 124 Мбайт (5%)
Заголовок : LostFilm 5.1
Язык : Russian
Default : Да
Forced : Нет

Аудио #2
Идентификатор : 3
Формат : AC-3
Формат/Информация : Audio Coding 3
Расширение режима : CM (complete main)
Параметр Endianness формата : Big
Идентификатор кодека : A_AC3
Продолжительность : 45 м.
Вид битрейта : Постоянный
Битрейт : 384 Кбит/сек
Каналы : 6 каналов
Расположение каналов : Front: L C R, Side: L R, LFE
Частота : 48,0 КГц
Битовая глубина : 16 бит
Метод сжатия : С потерями
Размер потока : 124 Мбайт (5%)
Заголовок : NewStudio 5.1
Язык : Russian
Default : Нет
Forced : Нет

Аудио #3
Идентификатор : 4
Формат : AC-3
Формат/Информация : Audio Coding 3
Расширение режима : CM (complete main)
Параметр Endianness формата : Big
Идентификатор кодека : A_AC3
Продолжительность : 45 м.
Вид битрейта : Постоянный
Битрейт : 384 Кбит/сек
Каналы : 6 каналов
Расположение каналов : Front: L C R, Side: L R, LFE
Частота : 48,0 КГц
Битовая глубина : 16 бит
Метод сжатия : С потерями
Размер потока : 124 Мбайт (5%)
Заголовок : AlexFilm 5.1
Язык : Russian
Default : Нет
Forced : Нет

Аудио #4
Идентификатор : 5
Формат : AC-3
Формат/Информация : Audio Coding 3
Расширение режима : CM (complete main)
Параметр Endianness формата : Big
Идентификатор кодека : A_AC3
Продолжительность : 45 м.
Вид битрейта : Постоянный
Битрейт : 384 Кбит/сек
Каналы : 6 каналов
Расположение каналов : Front: L C R, Side: L R, LFE
Частота : 48,0 КГц
Битовая глубина : 16 бит
Метод сжатия : С потерями
Размер потока : 124 Мбайт (5%)
Заголовок : BaibaKo 5.1
Язык : Russian
Default : Нет
Forced : Нет

Аудио #5
Идентификатор : 6
Формат : AC-3
Формат/Информация : Audio Coding 3
Расширение режима : CM (complete main)
Параметр Endianness формата : Big
Идентификатор кодека : A_AC3
Продолжительность : 45 м.
Вид битрейта : Постоянный
Битрейт : 384 Кбит/сек
Каналы : 6 каналов
Расположение каналов : Front: L C R, Side: L R, LFE
Частота : 48,0 КГц
Битовая глубина : 16 бит
Метод сжатия : С потерями
Размер потока : 124 Мбайт (5%)
Заголовок : original
Язык : English
Default : Нет
Forced : Нет

Текст #1
Идентификатор : 7
Формат : UTF-8
Идентификатор кодека : S_TEXT/UTF8
Идентификатор кодека/Информация : UTF-8 Plain Text
Заголовок : rus
Язык : Russian
Default : Нет
Forced : Нет

Текст #2
Идентификатор : 8
Формат : UTF-8
Идентификатор кодека : S_TEXT/UTF8
Идентификатор кодека/Информация : UTF-8 Plain Text
Заголовок : CC
Язык : English
Default : Нет
Forced : Нет

Когда раздача ведётся путём добавления новых серий, при каждом добавлении создётся новый торрент. Чтобы начать докачку новой серии, пользователям необходимо сделать следующее:
(1) остановить скачивание,
(2) удалить старый торрент у себя из клиента (старые серии удалять не надо),
(3) скачать новый торрент и запустить его у себя в клиенте вместо старого, при этом указать клиенту путь в старую папку, куда и должно происходить скачивание новых серий.
Ваш клиент при этом должен произвести хеширование (проверку) старой папки (если не производит сам - помогите ему сделать это), и будет докачивать только те серии, которых у вас ещё нет. Старые серии при этом не удаляются, а продолжают раздаваться!
Eсли вы уже удалили старые серии, то предотвратить повторную закачку старых серий можно, отжав галочку в соответсвующих местах при запуске нового торрента. По возможности, желательно не удалять старые серии как можно дольше, чтобы релизёр не столько продолжал раздавать старые серии, а смог сконцентрироваться на новых.



Скачать Уэйворд.Пайнс.Уэйуорд.Пайнс.Сосны.Wayward.Pines.(сезон.01).(Зал.Батманглидж.и.др.).[2015.драма.триллер.мистика.WEB-DL].[1080p].5x[MVO.(LostFilm.NewStudio.AlexFilm.BaibaKo.Fox)]+[Eng]+[Sub.Rus.Eng].torrent без регистрации
Золото ЗОЛОТАЯ РАЗДАЧА! СКАЧАННОЕ НЕ ЗАСЧИТЫВАЕТСЯ! Золото
Дата: Зарегистрирован   [ Тип: внутренний ] Как тут cкачать?
MAGNET ссылка
MAGNET ссылка


Скачать .torrent

61 KB

Статус: проверено DHT
Скачан: торрент - 2132 раз, раздача полностью - 13 раз
Размер: 23,49 GB
Оценка:  - (Голосов: 0)
Поблагодарили: 3
Поделиться ссылкой на эту раздачу с друзьями:
В контактеFacebookОдноклассникиTwitterLivejournalМой МирLiveinternet
 

 
Показать сообщения:    


Вы не можете начинать темы
Вы не можете отвечать на сообщения
Вы не можете редактировать свои сообщения
Вы не можете удалять свои сообщения
Вы не можете голосовать в опросах
Вы не можете прикреплять файлы к сообщениям
Вы можете скачивать файлы